The Show

The Show (1996)

Comedy

Full description

[ www.Speed.Cd ] - The Rocky Horror Picture Show-Dvdrip-H264-MRFIXIT

Size 889.78 MB   0 seeders     Added 2013-02-26 12:48:00

Stream torrent
Starting‥ You need BitLord! Get it from 1BitLord.com
To download or stream you need BitLord. Visit them at BitLord.com
- 
http://www.Speed.Cd
 
http://www.Speed.Cd       the fast  and The Hottest Private Tracker on the net

Please Seed back to make the speed Faster!!
 ............ NFO .............
-[URL=http://img801.imageshack.us/i/therockyhorrorpictureshz.jpg/][IMG]image[/IMG][/URL]


MRFIXIT is proud to present:   The Rocky Horror Picture Show

Source:  The Rocky Horror Picture Show (1975) DVD-R NTSC WS [MM]

[URL=http://img204.imageshack.us/i/27867621.png/][IMG]image[/IMG][/URL]

Complete name                            : C:The Rocky Horror Picture Show-Dvdrip-H264-MRFIXIT.avi
Format                                   : AVI
Format/Info                              : Audio Video Interleave
File size                                : 840 MiB
Duration                                 : 2h 4mn
Overall bit rate                         : 939 Kbps
Writing library                          : VirtualDub build 32842/release  

[URL=http://img713.imageshack.us/i/32031619.png/][IMG]image[/IMG][/URL]

ID                                       : 0
Format                                   : AVC
Format/Info                              : Advanced Video Codec
Format profile                           : High@L3.0
Format settings, CABAC                   : Yes
Format settings, ReFrames                : 4 frames
Codec ID                                 : H264
Duration                                 : 2h 4mn
Bit rate                                 : 800 Kbps
Width                                    : 720 pixels
Height                                   : 384 pixels
Display aspect ratio                     : 1.85:1
Frame rate                               : 29.970 fps
Color space                              : YUV
Chroma subsampling                       : 4:2:0
Bit depth                                : 8 bits
Scan type                                : Progressive
Bits/(Pixel*Frame)                       : 0.097
Stream size                              : 715 MiB (85%)
Writing library                          : x264 core 125 r2200bm 999b753
Encoding settings                        : cabac=1 / ref=3 / deblock=1:0:0 / analyse=0x3:0x113 / me=hex / subme=7 / psy=1 / psy_rd=1.00:0.00 / mixed_ref=1 / me_range=16 / chroma_me=1 / trellis=1 / 8x8dct=1 / cqm=0 / deadzone=21,11 / fast_pskip=1 / chroma_qp_offset=-2 / threads=9 / lookahead_threads=1 / sliced_threads=0 / nr=0 / decimate=1 / interlaced=0 / bluray_compat=0 / constrained_intra=0 / bframes=3 / b_pyramid=2 / b_adapt=1 / b_bias=0 / direct=1 / weightb=1 / open_gop=0 / weightp=2 / keyint=250 / keyint_min=25 / scenecut=40 / intra_refresh=0 / rc_lookahead=40 / rc=2pass / mbtree=1 / bitrate=800 / ratetol=1.0 / qcomp=0.60 / qpmin=0 / qpmax=69 / qpstep=4 / cplxblur=20.0 / qblur=0.5 / ip_ratio=1.40 / aq=1:1.00
 

[URL=http://img684.imageshack.us/i/14258198.png/][IMG]image[/IMG][/URL]

ID                                       : 1
Format                                   : MPEG Audio
Format version                           : Version 1
Format profile                           : Layer 3
Mode                                     : Joint stereo
Mode extension                           : MS Stereo
Codec ID                                 : 55
Codec ID/Hint                            : MP3
Duration                                 : 2h 4mn
Bit rate mode                            : Constant
Bit rate                                 : 128 Kbps
Channel(s)                               : 2 channels
Sampling rate                            : 48.0 KHz
Compression mode                         : Lossy
Stream size                              : 114 MiB (14%)
Alignment                                : Split accross interleaves
Interleave, duration                     : 33 ms (1.00 video frame)
Interleave, preload duration             : 500 ms
 

[URL=http://img36.imageshack.us/i/19805875.png/][IMG]image[/IMG][/URL]
 
http://www.imdb.com/title/tt0073629/

[URL=http://img225.imageshack.us/i/39945039.png/][IMG]image[/IMG][/URL]

A newly engaged couple have a breakdown in an isolated area and must pay a call to the bizarre residence of Dr. Frank-N-Furter. 

[URL=http://img405.imageshack.us/i/70975872.png/][IMG]image[/IMG][/URL]

Tim Curry
Susan Sarandon
Barry Bostwick
Richard O'Brien
Patricia Quinn
Nell Campbell
Jonathan Adams
Peter Hinwood
Meat Loaf
Charles Gray
Jeremy Newson
Hilary Labow
Perry Bedden 	
Christopher Biggins 
Gaye Brown

[URL=http://img819.imageshack.us/i/94723758.png/][IMG]image[/IMG][/URL]

[URL=http://img713.imageshack.us/i/88255759.png/][IMG]image[/IMG][/URL]
[URL=http://img705.imageshack.us/i/49602614.png/][IMG]image[/IMG][/URL]
[URL=http://img607.imageshack.us/i/91708510.png/][IMG]image[/IMG][/URL]
[URL=http://img191.imageshack.us/i/86018927.png/][IMG]image[/IMG][/URL]
[URL=http://img40.imageshack.us/i/10822457.png/][IMG]image[/IMG][/URL]
[URL=http://img834.imageshack.us/i/50395754.png/][IMG]image[/IMG][/URL]

[URL=http://img834.imageshack.us/i/greets3.png/][IMG]image[/IMG][/URL]

voltage, DQ1, LEGION, PRESTiGE, 26k, RemixHD, UNiQUE, Legend-Rg, DiNGiE, Relentle$$,
Bigguy, paranoid53, HIVE-CM8, TRINITY, Rx, INSPiRAL, HOPE, tommiecook, Wayne, Seedling, Quagmire

Contact [color=red]iammrfixit@hushmail.me[/color]		
[ www.Speed.Cd ] - The Rocky Horror Picture Show-Dvdrip-H264-MRFIXIT/The Rocky Horror Picture Show-Dvdrip-H264-MRFIXIT-sample.avi 9.154 MB
[ www.Speed.Cd ] - The Rocky Horror Picture Show-Dvdrip-H264-MRFIXIT/The Rocky Horror Picture Show-Dvdrip-H264-MRFIXIT.avi 880.62 MB
[ www.Speed.Cd ] - The Rocky Horror Picture Show-Dvdrip-H264-MRFIXIT/The Rocky Horror Picture Show-Dvdrip-H264-MRFIXIT.nfo 5.958 KB
Gathering some info...

Register and log in Isohunt and see no captcha anymore!

4000 symbols left
Hash d5c850e239803fca95265e3ba7d9335847c5c668

Related torrents for "[ www.Speed.Cd ] - The Rocky Horror Picture Show-Dvdrip-H264-MRFIXIT"

Torrent search:

dvdrip h264