AmateurAllure.com - Lila2 720p.mov

Size 344.726 MB   0 seeders     Added 2013-02-26 13:29:04

Stream torrent
Starting‥ You need BitLord! Get it from BitLord.com
To download or stream you need BitLord. Visit them at BitLord.com
Evelyn Salt is a CIA agent who is offered vital information by a Russian spy - the President of Russia will be assassinated in New York. But the name of the assassin is Evelyn Salt! Concerned about the safety of her husband, she goes on the run. Her boss refuses to accept shes a mole but just who is she?
Starring: Angelina Jolie, Liev Schreiber, Chiwetel Ejiofor, Yara Shahidi, Victor Slezak, Gaius Charles, Kevin ODonnell, Daniel Olbrychski, Cassidy Hinkle, James Cronin, Marion McCorry, Corey Stoll
Director: Phillip Noyce
http://www.imdb.com/title/tt0944835/
General
Unique ID: 153763440932265284874215107778274796251 (0x73ADC2F342747CB3158311F3366622DB)
Complete name: E:Salt (2010) 720p MKV x264 AC3 BRrip [Pioneer].mkv
Format: Matroska
Format version: Version 2
File size: 1.52 GiB
Duration: 1h 44mn
Overall bit rate: 2 091 Kbps
Writing application: HandBrake 0.9.8
Writing library: libmkv 0.6.5
Video
ID: 1
Format: AVC
Format/Info: Advanced Video Codec
Format profile: High@L3.1
Format settings, CABAC: Yes
Format settings, ReFrames: 5 frames
Codec ID: V_MPEG4/ISO/AVC
Duration: 1h 44mn
Bit rate: 1 857 Kbps
Width: 1 280 pixels
Height: 528 pixels
Display aspect ratio: 2.40:1
Frame rate mode: Constant
Frame rate: 23.976 fps
Color space: YUV
Chroma subsampling: 4:2:0
Bit depth: 8 bits
Scan type: Progressive
Bits/(Pixel*Frame): 0.115
Stream size: 1.35 GiB (89%)
Writing library: x264 core 120
Language: English
Default: Yes
Forced: No
Color primaries: BT.709
Transfer characteristics: BT.709
Matrix coefficients: BT.709
Audio
ID: 2
Format: AC-3
Format/Info: Audio Coding 3
Mode extension: CM (complete main)
Format settings, Endianness: Big
Codec ID: A_AC3
Duration: 1h 44mn
Bit rate mode: Constant
Bit rate: 192 Kbps
Channel(s): 6 channels
Channel positions: Front: L C R, Side: L R, LFE
Sampling rate: 48.0 KHz
Bit depth: 16 bits
Compression mode: Lossy
Stream size: 143 MiB (9%)
Language: English
Default: Yes
Forced: No
Text
ID: 3
Format: UTF-8
Codec ID: S_TEXT/UTF8
Codec ID/Info: UTF-8 Plain Text
Language: English
Default: No
Forced: No		
AmateurAllure.com - Lila2 720p.mov 344.726 MB
Gathering some info...

Register and log in Isohunt and see no captcha anymore!

4000 symbols left
Hash a55a13db094d5fe628141bb883559d2023de4c66