imdb
rating

8.9
Schindler's List

Schindler's List (1993)

Drama, History, War

Full description

Schindlers List [1993] 720p BRRip H264 AC3 - CODY

Size 3.793 GB   3 seeders     Added 2013-02-26 16:03:34

Stream torrent
Starting‥ You need BitLord! Get it from BitLord.com
To download or stream you need BitLord. Visit them at BitLord.com
General
Complete name                            : Schindlers List [1993] 720p BRRip H264 AC3 - CODY.mp4
Format                                   : MPEG-4
Format profile                           : Base Media
Codec ID                                 : isom
File size                                : 3.53 GiB
Duration                                 : 3h 15mn
Overall bit rate mode                    : Variable
Overall bit rate                         : 2 590 Kbps
Encoded date                             : UTC 2013-02-24 18:51:16

Video
ID                                       : 1
Format                                   : AVC
Format/Info                              : Advanced Video Codec
Format profile                           : High@L4.1
Format settings, CABAC                   : Yes
Format settings, ReFrames                : 5 frames
Codec ID                                 : avc1
Codec ID/Info                            : Advanced Video Coding
Duration                                 : 3h 15mn
Bit rate mode                            : Variable
Bit rate                                 : 2 140 Kbps
Maximum bit rate                         : 20.0 Mbps
Width                                    : 1 280 pixels
Height                                   : 696 pixels
Display aspect ratio                     : 1.85:1
Frame rate mode                          : Constant
Frame rate                               : 23.976 fps
Color space                              : YUV
Chroma subsampling                       : 4:2:0
Bit depth                                : 8 bits
Scan type                                : Progressive
Bits/(Pixel*Frame)                       : 0.100
Stream size                              : 2.92 GiB (83%)
Writing library                          : x264 core 125 r2208 d9d2288
Encoding settings                        : rc=2pass
Color primaries                          : Generic film

Audio
ID                                       : 2
Format                                   : AC-3
Format/Info                              : Audio Coding 3
Mode extension                           : CM (complete main)
Format settings, Endianness              : Big
Codec ID                                 : ac-3
Duration                                 : 3h 15mn
Bit rate mode                            : Constant
Bit rate                                 : 448 Kbps
Channel(s)                               : 6 channels
Channel positions                        : Front: L C R, Side: L R, LFE
Sampling rate                            : 48.0 KHz
Bit depth                                : 16 bits
Compression mode                         : Lossy
Delay relative to video                  : 125ms
Stream size                              : 626 MiB (17%)

Audio language                           : English , Hebrew, German, Polish

IMDB link:                                 http://www.imdb.com/title/tt0108052/

Subtitles included                       : English, Romanian

Please seed at least 1,5:1. This way this torrent has a chance to survive !

Thanks. Enjoy !!!		
Schindlers List [1993] 720p BRRip H264 AC3 - CODY/Cover.jpg 181.562 KB
Schindlers List [1993] 720p BRRip H264 AC3 - CODY/Info_by_Cody.txt 7.862 KB
Schindlers List [1993] 720p BRRip H264 AC3 - CODY/Schindlers List [1993] 720p BRRip H264 AC3 - CODY.English.srt 161.319 KB
Gathering some info...

Register and log in Isohunt and see no captcha anymore!

4000 symbols left
Hash ec896066f260414eaddd565bc33291d6d1dba673

Related torrents for "Schindlers List [1993] 720p BRRip H264 AC3 - CODY"

Torrent search:

h264 1993 hd bd