imdb
rating

8.9
Schindler's List

Schindler's List (1993)

Drama, History, War

Full description

Schindlers List [1993] BRRip XviD - CODY

Size 1.809 GB   1 seeders     Added 2013-02-26 16:01:44

Stream torrent
Starting‥ You need BitLord! Get it from BitLord.com
10
To download or stream you need BitLord. Visit them at BitLord.com
General
Complete name                            : Schindlers List [1993] BRRip XviD - CODY.avi
Format                                   : AVI
Format/Info                              : Audio Video Interleave
File size                                : 1.68 GiB
Duration                                 : 3h 15mn
Overall bit rate                         : 1 235 Kbps
Writing application                      : VirtualDubMod 1.5.10.3 | www.virtualdub-fr.org || (build 2550/release)
Writing library                          : VirtualDubMod build 2550/release

Video
ID                                       : 0
Format                                   : MPEG-4 Visual
Format profile                           : Advanced Simple@L5
Format settings, BVOP                    : 4
Format settings, QPel                    : No
Format settings, GMC                     : No warppoints
Format settings, Matrix                  : Default (H.263)
Codec ID                                 : XVID
Codec ID/Hint                            : XviD
Duration                                 : 3h 15mn
Bit rate                                 : 1 098 Kbps
Width                                    : 720 pixels
Height                                   : 392 pixels
Display aspect ratio                     : 1.85:1
Frame rate                               : 23.976 fps
Color space                              : YUV
Chroma subsampling                       : 4:2:0
Bit depth                                : 8 bits
Scan type                                : Progressive
Compression mode                         : Lossy
Bits/(Pixel*Frame)                       : 0.162
Stream size                              : 1.50 GiB (89%)
Writing library                          : XviD 65

Audio
ID                                       : 1
Format                                   : MPEG Audio
Format version                           : Version 1
Format profile                           : Layer 3
Codec ID                                 : 55
Codec ID/Hint                            : MP3
Duration                                 : 3h 15mn
Bit rate mode                            : Constant
Bit rate                                 : 128 Kbps
Channel(s)                               : 2 channels
Sampling rate                            : 48.0 KHz
Compression mode                         : Lossy
Stream size                              : 179 MiB (10%)
Alignment                                : Aligned on interleaves
Interleave, duration                     : 42 ms (1.00 video frame)
Interleave, preload duration             : 504 ms
Writing library                          : LAME3.99r
Encoding settings                        : -m s -V 4 -q 2 -lowpass 17 -b 128

Audio language                           : English , Hebrew, German, Polish

IMDB link:                                 http://www.imdb.com/title/tt0108052/

Subtitles included                       : English, Romanian

Please seed at least 1,5:1. This way this torrent has a chance to survive !

Thanks. Enjoy !!!				
Schindlers List [1993] BRRip XviD - CODY/Cover.jpg 181.562 KB
Schindlers List [1993] BRRip XviD - CODY/Info_by_Cody.txt 5.592 KB
Schindlers List [1993] BRRip XviD - CODY/Schindlers List [1993] BRRip XviD - CODY.avi 1.808 GB
Gathering some info...

Register and log in Isohunt and see no captcha anymore!

4000 symbols left
Hash d14cf5bd6b59f27478337ce75a15730a932371bd

Related torrents for "Schindlers List [1993] BRRip XviD - CODY"

Torrent search:

1993 bd