Take Me Out

Take Me Out (2009)

Romance/Dating

Full description

Take.Me.Out.S05E08.WS.PDTV.XviD-W33D.avi

Size 536.22 MB   0 seeders     Added 2013-02-26 20:46:52

Stream torrent
Starting‥ You need BitLord! Get it from BitLord.com
To download or stream you need BitLord. Visit them at BitLord.com
Take.Me.Out.S05E08.WS.PDTV.XviD-W33D
Paddy attempts to find dates for a selection of different women.
If they aren't impressed by what they see and hear they can turn off their lights.
Any girls with their lights still turned on at the end of several rounds they have
the chance to be selected to go out on a date with the man.
If all the girls end up turning their lights off the man goes home without a date.
Paddy also updates on how last week's dates went.



General
Complete name                            : Take.Me.Out.S05E08.WS.PDTV.XviD-W33D.avi
Format                                   : AVI
Format/Info                              : Audio Video Interleave
File size                                : 511 MiB
Duration                                 : 1h 5mn
Overall bit rate mode                    : Variable
Overall bit rate                         : 1 088 Kbps
Writing application                      : VirtualDubMod 1.5.10.2 (build 2540/release)
Writing library                          : VirtualDubMod build 2540/release

Video
ID                                       : 0
Format                                   : MPEG-4 Visual
Format profile                           : Advanced Simple@L5
Format settings, BVOP                    : 1
Format settings, QPel                    : No
Format settings, GMC                     : No warppoints
Format settings, Matrix                  : Default (H.263)
Codec ID                                 : XVID
Codec ID/Hint                            : XviD
Duration                                 : 1h 5mn
Bit rate                                 : 944 Kbps
Width                                    : 544 pixels
Height                                   : 304 pixels
Display aspect ratio                     : 16:9
Frame rate                               : 25.000 fps
Color space                              : YUV
Chroma subsampling                       : 4:2:0
Bit depth                                : 8 bits
Scan type                                : Progressive
Compression mode                         : Lossy
Bits/(Pixel*Frame)                       : 0.228
Stream size                              : 444 MiB (87%)
Writing library                          : XviD 1.1.2 (UTC 2006-11-01)

Audio
ID                                       : 1
Format                                   : MPEG Audio
Format version                           : Version 1
Format profile                           : Layer 3
Mode                                     : Joint stereo
Mode extension                           : MS Stereo
Codec ID                                 : 55
Codec ID/Hint                            : MP3
Duration                                 : 1h 5mn
Bit rate mode                            : Variable
Bit rate                                 : 128 Kbps
Channel(s)                               : 2 channels
Sampling rate                            : 48.0 KHz
Compression mode                         : Lossy
Stream size                              : 61.4 MiB (12%)
Alignment                                : Aligned on interleaves
Interleave, duration                     : 24 ms (0.60 video frame)
Interleave, preload duration             : 506 ms
Writing library                          : LAME3.90.
Encoding settings                        : -m j -V 4 -q 2 -lowpass 17.6 --abr 128		
Take.Me.Out.S05E08.WS.PDTV.XviD-W33D.avi 536.22 MB
Gathering some info...

Register and log in Isohunt and see no captcha anymore!

4000 symbols left
Hash 2780cf24fd5c4f8ad6f8efe23f7f49330391b150

Related torrents for "Take.Me.Out.S05E08.WS.PDTV.XviD-W33D.avi"

Torrent search:

season 05 hdtv episode 08