imdb
rating

8.0
The Perks of Being a Wallflower

The Perks of Being a Wallflower (2012)

Drama, Romance

Full description
quality   hd bd dvdrip x264 cam

The Perks Of Being A Wallflower 2012 BRRip 720p x264 AAC - PRiSTiNE

Size 654.091 MB   20 seeders     Added 2013-02-27 02:18:34

Stream torrent
Starting‥ You need BitLord! Get it from BitLord.com
To download or stream you need BitLord. Visit them at BitLord.com
_________________________  Visit us at _________________________
  
http://p2pdl.com  ____________________________  http://p2pdl.com

 
image

The Perks Of Being A Wallflower 2012 BRRip 720p x264 AAC - PRiSTiNE

Genre: Drama | Romance
Plot: An introvert freshman is taken under the wings of two seniors who welcome him to the real world.
Director: Stephen Chbosky
Stars: Logan Lerman, Emma Watson, Ezra Miller
Rated: Rated PG-13 on appeal for mature thematic material, drug and alcohol use, sexual content including references, and a fight - all involving teens.

Info: 
http://www.imdb.com/title/tt1659337/
 
http://www.rottentomatoes.com/m/the_perks_of_being_a_wallflower/

General
Complete name                  : The Perks Of Being A Wallflower 2012 BRRip 720p x264 AAC - PRiSTiNE.mp4
Format                         : MPEG-4
Format profile                 : Base Media / Version 2
Codec ID                       : mp42
File size                      : 617 MiB
Duration                       : 1h 42mn
Overall bit rate mode          : Variable
Overall bit rate               : 840 Kbps

Source                         : 720p.BluRay.x264-SPARKS (Thanks)

Video
Format                         : AVC
Format/Info                    : Advanced Video Codec
Format profile                 : High@L4.1
Bit rate                       : 755 Kbps
Width                          : 1 280 pixels
Height                         : 720 pixels
Display aspect ratio           : 16:9
Frame rate mode                : Variable
Frame rate                     : 23.976 fps
Bit depth                      : 8 bits
Scan type                      : Progressive
Bits/(Pixel*Frame)             : 0.034
Stream size                    : 554 MiB (90%)
Writing library                : x264 core 129

Audio
Format                         : AAC
Bit rate mode                  : Variable
Bit rate                       : 80.0 Kbps
Channel(s)                     : 2 channels
Channel positions              : Front: L R
Sampling rate                  : 48.0 KHz
Compression mode               : Lossy
Delay relative to video        : 83ms
Stream size                    : 58.7 MiB (10%)
Language                       : English

Subtitle                       : Yes ( English)


Screens: 
image 
image 
image 
image


Thumbs: 
image
----------------------------------------------------------------------------------------------------


Recommend to you to use latest version of VLC player. Install K-Lite Codec Pack or shark007 codecs
in case of any kind of problem in playback (For non-VLC Media Player users). Alternatively, install
Core AVC codecs, the fastest decoder that there is coupled with Community Center Codec Pack and play
on Windows Media Player Classic. Check sample to be sure.
Enjoy!

Greets to: VYTO, a2zRG, MusiK_KinG, Kuroyukihime, TorDigger, Ash968, StyLishSaLH, Masta and staff members at
ExtraTorrent, TPB, H33T, KAT, 1337x, PublicHD, Ahashare, BTScene, SilverTorrent, LimeTorrents, TorrentMafia,
P2PDL, and all others.

Encoder Notes: Looking For Early Access To Anything You Can Provide DVDScr, R5, DVDR, BluRay, Direct
Audio, Early Music Releases, Seedboxes, Dedicated Servers anything u can provide, Advance / Promo CDs/
DVDs. If You Got anything to offer contact me at "prg@hush.com".		
The Perks Of Being A Wallflower 2012 BRRip 720p x264 AAC - PRiSTiNE/The Perks Of Being A Wallflower 2012 BRRip 720p x264 AAC - PRiSTiNE/The Perks Of Being A Wallflower 2012 BRRip 720p x264 AAC - PRiSTiNE.mp4 647.029 MB
The Perks Of Being A Wallflower 2012 BRRip 720p x264 AAC - PRiSTiNE/Cover, Preview, Screenshots/Preview.mp4 6.395 MB
The Perks Of Being A Wallflower 2012 BRRip 720p x264 AAC - PRiSTiNE/Cover, Preview, Screenshots/Thumbs.jpg 230.253 KB
Gathering some info...

Register and log in Isohunt and see no captcha anymore!

4000 symbols left
Hash 58af581033a6f61399516d276a50a49885817b00

Related torrents for "The Perks Of Being A Wallflower 2012 BRRip 720p x264 AAC - PRiSTiNE"

Torrent search:

x264 hd 2012 bd