Cult

Cult (2013)

Drama, Mystery, Thriller

Full description

Cult S01E02 In the Blood 720p (1280X720).avi Verified

Size 395.551 MB   0 seeders     Added 2013-02-27 02:57:53

Stream torrent
Starting‥ You need BitLord! Get it from BitLord.com
To download or stream you need BitLord. Visit them at BitLord.com
							General
Complete name : Cult S01E02 In the Blood 720p (1280X720).avi
Format : AVI
Format/Info : Audio Video Interleave
File size : 377 MiB
Duration : 41mn 20s
Overall bit rate : 1 275 Kbps
Video
ID : 0
Format : AVC
Format/Info : Advanced Video Codec
Format profile : High@L3.1
Format settings, CABAC : Yes
Format settings, ReFrames : 5 frames
Codec ID : H264
Duration : 41mn 20s
Bit rate : 1 138 Kbps
Width : 1 280 pixels
Height : 720 pixels
Display aspect ratio : 16:9
Frame rate mode : Variable
Frame rate : 23.976 fps
Color space : YUV
Chroma subsampling : 4:2:0
Bit depth : 8 bits
Scan type : Progressive
Bits/(Pixel*Frame) : 0.051
Stream size : 336 MiB (89%)
Audio
ID : 1
Format : MPEG Audio
Format version : Version 1
Format profile : Layer 3
Codec ID : 55
Codec ID/Hint : MP3
Duration : 41mn 20s
Bit rate mode : Constant
Bit rate : 128 Kbps
Channel(s) : 2 channels
Sampling rate : 44.1 KHz
Compression mode : Lossy
Stream size : 37.8 MiB (10%)
Alignment : Split accross interleaves
Interleave, duration : 42 ms (1.00 video frame)
Interleave, preload duration : 253 ms
Writing library : LAMELAME_MAJOR_VERSI
Cult S01E02 In the Blood 720p (1280X720).avi/Cult S01E02 In the Blood 720p (1280X720).avi 395.413 MB
Cult S01E02 In the Blood 720p (1280X720).avi/vlcsnap-2013-02-27-01h26m53s91_1.jpg 70.293 KB
Cult S01E02 In the Blood 720p (1280X720).avi/vlcsnap-2013-02-27-01h29m50s43_1.jpg 64.906 KB
Gathering some info...

Register and log in Isohunt and see no captcha anymore!

4000 symbols left
Hash 6fbf4182d7c1b0ef4bfe1c1f73d49d49137573e1

Related torrents for "Cult S01E02 In the Blood 720p (1280X720).avi"

Torrent search:

season 01 episode 02 hd 2013