imdb
rating

7.3
Rise of the Guardians

Rise of the Guardians (2012)

Animation, Family

Full description
quality   x264 hd bd dvdrip dvd fullhd

Rise Of The Guardians 2012 BRRiP XviD AC3 - BHRG Verified

Size 1.588 GB   0 seeders     Added 2013-02-27 06:16:04

Stream torrent
Starting‥ You need BitLord! Get it from 1BitLord.com
To download or stream you need BitLord. Visit them at BitLord.com
Format                           : AVI
Format/Info                      : Audio Video Interleave
File size                        : 1.46 GiB
Duration                         : 1h 37mn
Overall bit rate                 : 2 147 Kbps

Video
ID                               : 0
Format                           : MPEG-4 Visual
Format profile                   : Advanced Simple@L5
Format settings, BVOP            : 2
Format settings, QPel            : No
Format settings, GMC             : No warppoints
Format settings, Matrix          : Default (H.263)
Codec ID                         : XVID
Codec ID/Hint                    : XviD
Duration                         : 1h 37mn
Bit rate                         : 1 499 Kbps
Width                            : 624 pixels
Height                           : 352 pixels
Display aspect ratio             : 16:9
Frame rate                       : 23.976 fps
Color space                      : YUV
Chroma subsampling               : 4:2:0
Bit depth                        : 8 bits
Scan type                        : Progressive
Compression mode                 : Lossy
Bits/(Pixel*Frame)               : 0.285
Stream size                      : 1.02 GiB (70%)
Writing library                  : XviD 1.2.1 (UTC 2008-12-04)

Audio
ID                               : 1
Format                           : AC-3
Format/Info                      : Audio Coding 3
Mode extension                   : CM (complete main)
Codec ID                         : 2000
Duration                         : 1h 37mn
Bit rate mode                    : Constant
Bit rate                         : 640 Kbps
Channel(s)                       : 6 channels
Channel positions                : Front: L C R, Side: L R, LFE
Sampling rate                    : 48.0 KHz
Bit depth                        : 16 bits
Compression mode                 : Lossy
Stream size                      : 445 MiB (30%)
Alignment                        : Aligned on interleaves
Interleave, duration             : 64 ms (1.53 video frames)
Interleave, preload duration     : 192 ms
Title                            : sparks-rotg2012-1080 - [1] English

Screens:
 
image 
image 
image 
image		
Rise Of The Guardians 2012 BRRiP XviD AC3 - BHRG/Rise Of The Guardians 2012 BRRiP XviD AC3 - BHRG (Sample).avi 22.86 MB
Rise Of The Guardians 2012 BRRiP XviD AC3 - BHRG/Rise Of The Guardians 2012 BRRiP XviD AC3 - BHRG.avi 1.565 GB
Rise Of The Guardians 2012 BRRiP XviD AC3 - BHRG/www.RARBG.com.txt 45 B
Gathering some info...

Register and log in Isohunt and see no captcha anymore!

4000 symbols left
Hash 0dc481eb295d45abe51f55895904a3410bdde9ce

Related torrents for "Rise Of The Guardians 2012 BRRiP XviD AC3 - BHRG"

Torrent search:

2012 bd