imdb
rating

6.3
Born of Hope

Born of Hope (2009)

Action, Adventure, Fantasy

Full description
quality   web-rip hd dvdrip x264 hdtv

Born of Hope (2009) WEBRip XviD - DiGrX

Size 938.367 MB   0 seeders     Added 2013-02-27 15:48:07

Stream torrent
Starting‥ You need BitLord! Get it from BitLord.com
To download or stream you need BitLord. Visit them at BitLord.com
Born of Hope (2009) WEBRip XviD - DiGrX

I think this version has good audio correspondence.


Video
ID                                       : 0
Format                                   : MPEG-4 Visual
Format profile                           : Simple@L3
Format settings, BVOP                    : No
Format settings, QPel                    : No
Format settings, GMC                     : No warppoints
Format settings, Matrix                  : Default (H.263)
Codec ID                                 : XVID
Codec ID/Hint                            : XviD
Duration                                 : 1h 11mn
Bit rate                                 : 1 617 Kbps
Width                                    : 720 pixels
Height                                   : 304 pixels
Display aspect ratio                     : 2.35:1
Frame rate                               : 25.000 fps
Color space                              : YUV
Chroma subsampling                       : 4:2:0
Bit depth                                : 8 bits
Scan type                                : Progressive
Compression mode                         : Lossy
Bits/(Pixel*Frame)                       : 0.296
Stream size                              : 826 MiB (92%)
Writing library                          : XviD 63

Audio
ID                                       : 1
Format                                   : MPEG Audio
Format version                           : Version 1
Format profile                           : Layer 3
Mode                                     : Joint stereo
Codec ID                                 : 55
Codec ID/Hint                            : MP3
Duration                                 : 1h 11mn
Bit rate mode                            : Variable
Bit rate                                 : 122 Kbps
Channel(s)                               : 2 channels
Sampling rate                            : 48.0 KHz
Compression mode                         : Lossy
Stream size                              : 62.4 MiB (7%)
Alignment                                : Aligned on interleaves
Interleave, duration                     : 24 ms (0.60 video frame)
Interleave, preload duration             : 221 ms		
Born of Hope (2009) WEBRip XviD - DiGrX/Born of Hope (2009) WEBRip XviD - DiGrX.avi 938.305 MB
Born of Hope (2009) WEBRip XviD - DiGrX/Born-Of-Hope-2009-Front-Cover.jpg 61.358 KB
Gathering some info...

Register and log in Isohunt and see no captcha anymore!

4000 symbols left
Hash 3b35add971f915ae978211e796243c676d4cc677

Related torrents for "Born of Hope (2009) WEBRip XviD - DiGrX"

Torrent search:

2009 web-rip