imdb
rating

4.9
The Marine 3: Homefront

The Marine 3: Homefront (2013)

Action

Full description
quality   dvdrip x264 hd bd fullhd

The Marine 3 Homefront 2013 BRRip 720p x264 AAC - PRiSTiNE

Size 538.314 MB   0 seeders     Added 2013-02-27 22:21:32

Stream torrent
Starting‥ You need BitLord! Get it from BitLord.com
To download or stream you need BitLord. Visit them at BitLord.com
							The Marine 3 Homefront 2013 BRRip 720p x264 AAC - PRiSTiNE
Genre: Action
Plot: A Marine must do whatever it takes to save his kidnapped niece and 
stop a terrorist attack masterminded by a radical militia group.
the Immortal Guardians team up to protect the innocence of children all around the world.
Director: Peter Ramsey
Stars: Ashley Bell, Mike Mizanin, Neal McDonough, Michael Eklund
Rated: Rated R for violence and language.IMDbTrailer
General
Complete name : The Marine 3 Homefront 2013 BRRip 720p x264 AAC - PRiSTiNE.mp4
Format : MPEG-4
Format profile : Base Media
Codec ID : isom
File size : 503 MiB
Duration : 1h 30mn
Overall bit rate mode : Variable
Overall bit rate : 781 Kbps
Source : 720p Bluray Japhson (Thanks)
Video
Format : AVC
Format/Info : Advanced Video Codec
Format profile : High 10@L4.1
Format settings, CABAC : Yes
Format settings, ReFrames : 4 frames
Codec ID : avc1
Codec ID/Info : Advanced Video Coding
Duration : 1h 30mn
Bit rate : 699 Kbps
Width : 1 280 pixels
Height : 720 pixels
Display aspect ratio : 16:9
Frame rate mode : Constant
Frame rate : 23.976 fps
Bit depth : 10 bits
Scan type : Progressive
Bits/(Pixel*Frame) : 0.032
Stream size : 450 MiB (89%)
Audio
Format : AAC
Bit rate mode : Variable
Bit rate : 79.9 Kbps
Channel(s) : 2 channels
Channel positions : Front: L R
Sampling rate : 48.0 KHz / 24.0 KHz
Compression mode : Lossy
Stream size : 51.5 MiB (10%)
Language : English
Subtitle : Yes ( English)Screens:Thumbs:
----------------------------------------------------------------------------------------------------
Recommend to you to use latest version of VLC player. Install K-Lite Codec Pack or shark007 codecs
in case of any kind of problem in playback (For non-VLC Media Player users). Alternatively, install
Core AVC codecs, the fastest decoder that there is coupled with Community Center Codec Pack and play
on Windows Media Player Classic. Check sample to be sure.
Enjoy!
Greets to: VYTO, a2zRG, MusiK_KinG, Kuroyukihime, TorDigger, Ash968, StyLishSaLH, Masta and staff members at
ExtraTorrent, TPB, H33T, KAT, 1337x, PublicHD, Ahashare, BTScene, SilverTorrent, LimeTorrents, TorrentMafia,
P2PDL, and all others.
Encoder Notes: Looking For Early Access To Anything You Can Provide DVDScr, R5, DVDR, BluRay, Direct
Audio, Early Music Releases, Seedboxes, Dedicated Servers anything u can provide, Advance / Promo CDs/
DVDs. If You Got anything to offer contact me at "prg@hush.com".
						
The Marine 3 Homefront 2013 BRRip 720p x264 AAC - PRiSTiNE/The Marine 3 Homefront 2013 BRRip 720p x264 AAC - PRiSTiNE/The Marine 3 Homefront 2013 BRRip 720p x264 AAC - PRiSTiNE.mp4 527.789 MB
The Marine 3 Homefront 2013 BRRip 720p x264 AAC - PRiSTiNE/Sample/Sample.mp4 10.324 MB
The Marine 3 Homefront 2013 BRRip 720p x264 AAC - PRiSTiNE/Sample/Cover.jpg 116.752 KB
Gathering some info...

Register and log in Isohunt and see no captcha anymore!

4000 symbols left
Hash 30d53e21c824c5636a45995f2e17e7a8c8378e14

Related torrents for "The Marine 3 Homefront 2013 BRRip 720p x264 AAC - PRiSTiNE"

Torrent search:

x264 hd bd 2013