imdb
rating

4.8
The Unborn

The Unborn (2009)

Horror, Mystery, Thriller

Full description
quality   dvdrip cam dvd screener bd dvdr

The Unborn

Size 1.188 GB   0 seeders     Added 2013-02-28 05:17:33

Stream torrent
Starting‥ You need BitLord! Get it from BitLord.com
To download or stream you need BitLord. Visit them at BitLord.com
With: Odette Yustman, Cam Gigandet and Gary Oldman

Haar hele leven heeft Casey Beldon (Odette Yustman) haar moeder gehaat, vanwege het feit dat ze haar op jonge leeftijd heeft verlaten. Maar als Casey geteisterd wordt door nachtmerries en achtervolgd wordt door geesten begint ze langzamerhand te begrijpen wat de reden was van haar moeder om dit te doen. Langzaam maar zeker komt ze erachter dat een geest haar lichaam aan het overnemen is en moet ze alles doen om dit te stoppen. Haar enige redding lijkt een man genaamd Sendak (Gary Oldman)..

A young woman fights the spirit that is slowly taking possession of her.
 
http://www.imdb.com/title/tt1139668	

------------------------ Dutch Friends ------------------------
---------------------------------------------------------------
- Bezoek ook eens mijn vrienden op:  http://www.Film-Test.nl --
----- voor mijn Nederlandse Sync. ondertitels ---- en meer ----
------- http://www.Film-Test.nl ---- Over Films en meer -------
---------------------------------------------------------------

General:

Complete name                    : The UnbornThe Unborn.avi
Format                           : AVI
Format/Info                      : Audio Video Interleave
File size                        : 1.11 GiB
Duration                         : 1h 25mn
Overall bit rate                 : 1 861 Kbps

Video:

Format                           : MPEG-4 Visual
Format profile                   : Simple@L3
Format settings, BVOP            : No
Format settings, QPel            : No
Format settings, GMC             : No warppoints
Format settings, Matrix          : Default (H.263)
Codec ID                         : XVID
Codec ID/Hint                    : XviD
Duration                         : 1h 25mn
Bit rate                         : 1 466 Kbps
Width                            : 720 pixels
Height                           : 304 pixels
Display aspect ratio             : 2.35:1
Frame rate                       : 25.000 fps
Color space                      : YUV
Chroma subsampling               : 4:2:0
Bit depth                        : 8 bits
Scan type                        : Progressive
Compression mode                 : Lossy
Bits/(Pixel*Frame)               : 0.268
Stream size                      : 892 MiB (79%)
Writing library                  : XviD 1.1.2 (UTC 2006-11-01)

Audio:

Format                           : AC-3
Format/Info                      : Audio Coding 3
Mode extension                   : CM (complete main)
Codec ID                         : 2000
Duration                         : 1h 25mn
Bit rate mode                    : Constant
Bit rate                         : 384 Kbps
Channel(s)                       : 6 channels
Channel positions                : Front: L C R, Side: L R, LFE
Sampling rate                    : 48.0 KHz
Bit depth                        : 16 bits
Compression mode                 : Lossy
Stream size                      : 234 MiB (21%)
Alignment                        : Aligned on interleaves
Interleave, duration             : 32 ms (0.80 video frame)
Interleave, preload duration     : 32 ms		
The Unborn/Cover/The Unborn.jpg 509.315 KB
The Unborn/Cover/www.Film-Test.nl.JPG 29.467 KB
The Unborn/The Unborn.avi 1.187 GB
Gathering some info...

Register and log in Isohunt and see no captcha anymore!

4000 symbols left
Hash 0df4728d11eb34facb0f5fb1e69d42bd65167f7f

Related torrents for "The Unborn"