The First Time 2012 DVDRip XviD juggs

Size 746.289 MB   59 seeders     Added 2013-02-28 08:31:57

Stream torrent
Starting‚Ä• You need BitLord! Get it from BitLord.com
To download or stream you need BitLord. Visit them at BitLord.com
Source : DVDR AN0NYM0US


Format : AVI
Format/Info : Audio Video Interleave
File size : 702 MiB
Duration : 1h 35mn
Overall bit rate : 1 032 Kbps
Writing library : VirtualDub build 32842/release

Video
ID : 0
Format : MPEG-4 Visual
Format profile : Advanced Simple@L5
Format settings, BVOP : 4
Format settings, QPel : No
Format settings, GMC : No warppoints
Format settings, Matrix : Default (H.263)
Muxing mode : Packed bitstream
Codec ID : XVID
Codec ID/Hint : XviD
Duration : 1h 35mn
Bit rate : 894 Kbps
Width : 640 pixels
Height : 352 pixels
Display aspect ratio : 16:9
Frame rate : 23.976 fps
Color space : YUV
Chroma subsampling : 4:2:0
Bit depth : 8 bits
Scan type : Progressive
Compression mode : Lossy
Bits/(Pixel*Frame) : 0.166
Stream size : 609 MiB (87%)
Writing library : XviD 64

Audio
ID : 1
Format : MPEG Audio
Format version : Version 1
Format profile : Layer 3
Codec ID : 55
Codec ID/Hint : MP3
Duration : 1h 35mn
Bit rate mode : Constant
Bit rate : 128 Kbps
Channel(s) : 2 channels
Sampling rate : 44.1 KHz
Compression mode : Lossy
Stream size : 87.1 MiB (12%)
Alignment : Split accross interleaves
Interleave, duration : 42 ms (1.00 video frame)
Interleave, preload duration : 500 ms
Writing library : LAME3.99r
Encoding settings : -m s -V 4 -q 3 -lowpass 17 -b 128


Plot
A romantic comedy centered on the two high schoolers: Dave, who until now has pined for a girl he can't have, and Aubrey, a creative type who's dating a guy who doesn't quite understand her.

 
image 
image 
image		
The First Time 2012 DVDRip XviD juggs/The First Time 2012 DVDRip XviD juggs.avi 736.251 MB
The First Time 2012 DVDRip XviD juggs/Torrent Downloaded From ExtraTorrent.com.txt 339 B
The First Time 2012 DVDRip XviD juggs/sample.avi 10.037 MB
Gathering some info...

Register and log in Isohunt and see no captcha anymore!

4000 symbols left
Hash eff1c20abbc18148ffa5ae06f548bfbb130ad76f