[ www.Speed.Cd ] - Bullet.to.the.Head.2013.HDTS CAM XviD Feel-Free

Size 859.917 MB   0 seeders     Added 2013-02-28 11:32:53

Stream torrent
Starting‥ You need BitLord! Get it from 1BitLord.com
To download or stream you need BitLord. Visit them at BitLord.com
- 
http://www.Speed.Cd
 
http://www.Speed.Cd       the fast  and The Hottest Private Tracker on the net

Please Seed back to make the speed Faster!!
 ............ NFO .............
-[img]image[/img]
[img]image[/img]


Genre:Action | Crime | Thriller
Language:English
IMDb:http://www.imdb.com/title/tt1308729
Source:HDTS XviD AC3-SmY Thanks
Subtitles: Mandarin
Encoder:Tony

Format                                   : AVI
Format/Info                              : Audio Video Interleave
File size                                : 819 MiB
Duration                                 : 1h 26mn
Overall bit rate                         : 1 328 Kbps

Video
ID                                       : 0
Format                                   : MPEG-4 Visual
Format profile                           : Simple@L5
Format settings, BVOP                    : No
Format settings, QPel                    : No
Format settings, GMC                     : No warppoints
Format settings, Matrix                  : Default (H.263)
Codec ID                                 : XVID
Codec ID/Hint                            : XviD
Duration                                 : 1h 26mn
Bit rate                                 : 1 189 Kbps
Width                                    : 640 pixels
Height                                   : 360 pixels
Display aspect ratio                     : 16:9
Frame rate                               : 29.970 fps
Color space                              : YUV
Chroma subsampling                       : 4:2:0
Bit depth                                : 8 bits
Scan type                                : Progressive
Compression mode                         : Lossy
Bits/(Pixel*Frame)                       : 0.172
Stream size                              : 733 MiB (89%)
Writing library                          : XviD 64

Audio
ID                                       : 1
Format                                   : AC-3
Format/Info                              : Audio Coding 3
Mode extension                           : CM (complete main)
Codec ID                                 : 2000
Duration                                 : 1h 26mn
Bit rate mode                            : Constant
Bit rate                                 : 128 Kbps
Channel(s)                               : 2 channels
Channel positions                        : Front: L R
Sampling rate                            : 44.1 KHz
Bit depth                                : 16 bits
Compression mode                         : Lossy
Stream size                              : 78.9 MiB (10%)
Alignment                                : Split accross interleaves
Interleave, duration                     : 33 ms (1.00 video frame)
Interleave, preload duration             : 500 ms

    
Plot:
  After watching their respective partners die, a New Orleans hitman and a Washington D.C. detective form an alliance in order to bring down their common enemy. 


Greets:
 CRYS,MiNiSTRY,INSPiRAL,IMAGINE,LKRG,ADTRG,FXG,3Li,FLAWL3SS,CrEwSaDe,TA,iLLUSiON,EMBER,HOPE,GooN,BBnRG,NOGRP,ETRG,BHRG,iLLUMiNATi,MiSTERE.ViSiON,DTRG SAFCuk009,LU,TheFalcon007,MYSTiC,PrisM,Noir,WBZ,LAP,Rx,Kingdom,SAFCuk009+Fabreezy,HDLiTE,TWiZTED,ETRG.ELEKTRI4KA,MAGNAT,CM8
                And to all the other p2p grps past and present		
[ www.Speed.Cd ] - Bullet.to.the.Head.2013.HDTS CAM XviD Feel-Free/091612bulletheadmoreno.png 681.026 KB
[ www.Speed.Cd ] - Bullet.to.the.Head.2013.HDTS CAM XviD Feel-Free/Bullet.to.the.Head.2013.HDTS CAM XviD Feel-Free.avi 858.46 MB
[ www.Speed.Cd ] - Bullet.to.the.Head.2013.HDTS CAM XviD Feel-Free/Bullet.to.the.Head.2013.HDTS CAM XviD Feel-Free.nfo 3.289 KB
Gathering some info...

Register and log in Isohunt and see no captcha anymore!

4000 symbols left
Hash cbf10bf55a43b98cbcef3f92d56dcb526adf53dc

Related torrents for "[ www.Speed.Cd ] - Bullet.to.the.Head.2013.HDTS CAM XviD Feel-Free"

Torrent search:

cam 2013