[ www.Speed.Cd ] - Housos.Vs.Authority.2013.DVDRiP.XViD.AC3-CM8

Size 1.586 GB   0 seeders     Added 2013-02-28 14:18:52

Stream torrent
Starting‚Ä• You need BitLord! Get it from BitLord.com
To download or stream you need BitLord. Visit them at BitLord.com
- 
http://www.Speed.Cd
 
http://www.Speed.Cd       the fast  and The Hottest Private Tracker on the net

Please Seed back to make the speed Faster!!
 ............ NFO .............
-[IMG]image[/IMG]


[color=blue][size=5][b]Housos.Vs.Authority.2013.DVDRiP.XViD.AC3-CM8[/b][/size][/color]


Source: DVD9

Video: 672x384 @bitrate 1580 2pass
Audio: English AC3 5.1 @448
Sample: Yes, included[/b]

 
http://www.imdb.com/title/tt2483516/


General
Complete name                            : Housos.Vs.Authority.2013.DVDRiP.XViD.AC3-CM8.avi
Format                                   : AVI
Format/Info                              : Audio Video Interleave
File size                                : 1.46 GiB
Duration                                 : 1h 42mn
Overall bit rate                         : 2 033 Kbps
Writing application                      : VirtualDubMod 1.5.4.1 (build 2178/release)
Writing library                          : VirtualDubMod build 2178/release

Video
ID                                       : 0
Format                                   : MPEG-4 Visual
Format profile                           : Advanced Simple@L5
Format settings, BVOP                    : 1
Format settings, QPel                    : No
Format settings, GMC                     : No warppoints
Format settings, Matrix                  : Custom
Codec ID                                 : XVID
Codec ID/Hint                            : XviD
Duration                                 : 1h 42mn
Bit rate                                 : 1 578 Kbps
Width                                    : 672 pixels
Height                                   : 384 pixels
Display aspect ratio                     : 16:9
Frame rate                               : 25.000 fps
Color space                              : YUV
Chroma subsampling                       : 4:2:0
Bit depth                                : 8 bits
Scan type                                : Progressive
Compression mode                         : Lossy
Bits/(Pixel*Frame)                       : 0.245
Stream size                              : 1.13 GiB (78%)
Writing library                          : XviD 1.2.1 (UTC 2008-12-04)

Audio
ID                                       : 1
Format                                   : AC-3
Format/Info                              : Audio Coding 3
Mode extension                           : CM (complete main)
Format settings, Endianness              : Big
Codec ID                                 : 2000
Duration                                 : 1h 42mn
Bit rate mode                            : Constant
Bit rate                                 : 448 Kbps
Channel(s)                               : 6 channels
Channel positions                        : Front: L C R, Side: L R, LFE
Sampling rate                            : 48.0 KHz
Bit depth                                : 16 bits
Compression mode                         : Lossy
Stream size                              : 329 MiB (22%)
Alignment                                : Split accross interleaves
Interleave, duration                     : 96 ms (2.40 video frames)
Interleave, preload duration             : 96 ms


Plot:

Franky (Fenech) and his best mate Dazza (Jason Davis) travel in a drug-laden campervan from the western outskirts of Sydney to Uluru so that Dazza's foul-mouthed girlfriend Shazza (Elle Dawe) can be reunited with the dying mother she hasn't seen since she was three.


Cast:

Elle Dawe as Shazza
Jason "Jabba" Davis as Dazza
Paul Fenech as Franky
Kev Taumata as Kevin
Vanessa Davis as Vanessa
Russell Gilbert as Bazza
Ashur Simon as Abdul
Tahir Bilgic as Habib


[img]image[/img]
[img]image[/img]
[img]image[/img]
[img]image[/img]
[img]image[/img]
[img]image[/img]




Greetz

LTFS,ViSiON,SPK,SceneLovers,PRESTiGE,SANTi,3LT0N,YanKeeS,COPYxRIGHT,THC,T0XiC
D2U,LKRG,ADTRG,Feel-Free,KoDeKinG,FLAWL3SS,WBZ,BHRG,26K,NOVA,MAGNET
Unevano,BigVik,Rapeseed,SAFC,goldadvance,KaN1vE,Pinnz,Wayne,HiGH
SeeN,jtr,Limey,ICONiK,4PlayHD,THEDEN-RG,eXceSs,AKS74u,TED
Mr Hive,rkofan,and most P2P groups
Great Work Guys :D

LOOKING FOR ANYTHING YOU WANT TO LOOK AND SOUND BETTER

CM8@hushmail.com		
[ www.Speed.Cd ] - Housos.Vs.Authority.2013.DVDRiP.XViD.AC3-CM8/Housos.Vs.Authority.2013.DVDRiP.XViD.AC3-CM8.avi 1.566 GB
[ www.Speed.Cd ] - Housos.Vs.Authority.2013.DVDRiP.XViD.AC3-CM8/Housos.Vs.Authority.2013.DVDRiP.XViD.AC3-CM8.nfo 4.489 KB
[ www.Speed.Cd ] - Housos.Vs.Authority.2013.DVDRiP.XViD.AC3-CM8/Sample.avi 20.426 MB
Gathering some info...

Register and log in Isohunt and see no captcha anymore!

4000 symbols left
Hash 9c36a13a2cce0da8e91b5ec0d7bb5959d498708d