imdb
rating

8.0
Life of Pi

Life of Pi (2012)

Action, Adventure, Drama

Full description
quality   dvdrip dvd x264 hd bd fullhd

[ www.Speed.Cd ] - Life.Of.Pi.2012.BRRip.XviD.Ac3.Feel-Free

Size 1.734 GB   0 seeders     Added 2013-02-28 16:32:40

Stream torrent
Starting‥ You need BitLord! Get it from 1BitLord.com
To download or stream you need BitLord. Visit them at BitLord.com
- 
http://www.Speed.Cd
 
http://www.Speed.Cd       the fast  and The Hottest Private Tracker on the net

Please Seed back to make the speed Faster!!
 ............ NFO .............
-[img]image[/img]
[img]image[/img]


Genre:Adventure | Drama
Language:English
IMDb:http://www.imdb.com/title/tt0454876/
Source:720p.BluRay.DTS-ES.x264-PublicHD Thanks
Subtitles:English
Encoder:Tony

Format                                   : AVI
Format/Info                              : Audio Video Interleave
File size                                : 1.58 GiB
Duration                                 : 2h 6mn
Overall bit rate                         : 1 782 Kbps

Video
ID                                       : 0
Format                                   : MPEG-4 Visual
Format profile                           : Advanced Simple@L5
Format settings, BVOP                    : 1
Format settings, QPel                    : No
Format settings, GMC                     : No warppoints
Format settings, Matrix                  : Default (H.263)
Codec ID                                 : XVID
Codec ID/Hint                            : XviD
Duration                                 : 2h 6mn
Bit rate                                 : 1 389 Kbps
Width                                    : 640 pixels
Height                                   : 344 pixels
Display aspect ratio                     : 1.860
Frame rate                               : 23.976 fps
Color space                              : YUV
Chroma subsampling                       : 4:2:0
Bit depth                                : 8 bits
Scan type                                : Progressive
Compression mode                         : Lossy
Bits/(Pixel*Frame)                       : 0.263
Stream size                              : 1.23 GiB (78%)
Writing library                          : XviD 1.2.1 (UTC 2008-12-04)

Audio
ID                                       : 1
Format                                   : AC-3
Format/Info                              : Audio Coding 3
Mode extension                           : CM (complete main)
Codec ID                                 : 2000
Duration                                 : 2h 6mn
Bit rate mode                            : Constant
Bit rate                                 : 384 Kbps
Channel(s)                               : 6 channels
Channel positions                        : Front: L C R, Side: L R, LFE
Sampling rate                            : 48.0 KHz
Bit depth                                : 16 bits
Compression mode                         : Lossy
Stream size                              : 349 MiB (22%)
Alignment                                : Aligned on interleaves
Interleave, duration                     : 42 ms (1.00 video frame)
Interleave, preload duration             : 512 ms

    
Plot:
  A young man who survives a disaster at sea is hurtled into an epic journey of adventure and discovery. While cast away, he forms an unexpected connection with another survivor ... a fearsome Bengal tiger. 



Greets:
 CRYS,INSPiRAL,IMAGINE,LKRG,ADTRG,FXG,3Li,FLAWL3SS,CrEwSaDe,TA,iLLUSiON,EMBER,HOPE,GooN,BBnRG,NOGRP,ETRG,BHRG,iLLUMiNATi,MiSTERE.ViSiON,DTRG SAFCuk009,LU,TheFalcon007,MYSTiC,PrisM,Noir,WBZ,LAP,Rx,Kingdom,SAFCuk009+Fabreezy,HDLiTE,TWiZTED,ETRG.ELEKTRI4KA,MAGNAT,CM8
                And to all the other p2p grps past and present		
[ www.Speed.Cd ] - Life.Of.Pi.2012.BRRip.XviD.Ac3.Feel-Free/life-of-pi-poster.jpg 77.991 KB
[ www.Speed.Cd ] - Life.Of.Pi.2012.BRRip.XviD.Ac3.Feel-Free/Life.Of.Pi.2012.BRRip.XviD.Ac3.Feel-Free.avi 1.697 GB
[ www.Speed.Cd ] - Life.Of.Pi.2012.BRRip.XviD.Ac3.Feel-Free/Life.Of.Pi.2012.BRRip.XviD.Ac3.Feel-Free.idx 396.188 KB
Gathering some info...

Register and log in Isohunt and see no captcha anymore!

4000 symbols left
Hash 5edc92a0cb5f031b3d034d20a9e82be995ccebe4

Related torrents for "[ www.Speed.Cd ] - Life.Of.Pi.2012.BRRip.XviD.Ac3.Feel-Free"

Torrent search:

2012 bd