A Good Day to Die Hard 2013 FRENCH DVDRip XviD-SPARKS

Size 735.193 MB   0 seeders     Added 2013-03-02 00:27:23

To download or stream you need BitLord. Visit them at BitLord.com
A Good Day to Die Hard 2013 FRENCH DVDRip XviD-SPARKS



Movie info :
GENRE............: Action | Crime | Thriller
IMDB RATING......: 5,9/10 from 16.718 users   Metascore: 28/100 


STATS:

Video
ID                               : 0
Format                           : MPEG-4 Visual
Format profile                   : Advanced Simple@L5
Format settings, BVOP            : 2
Format settings, QPel            : No
Format settings, GMC             : No warppoints
Format settings, Matrix          : Default (MPEG)
Muxing mode                      : Packed bitstream
Codec ID                         : XVID
Codec ID/Hint                    : XviD
Duration                         : 1h 37mn
Bit rate                         : 986 Kbps
Width                            : 720 pixels
Height                           : 320 pixels
Display aspect ratio             : 2.25:1
Frame rate                       : 29.970 fps
Color space                      : YUV
Chroma subsampling               : 4:2:0
Bit depth                        : 8 bits
Scan type                        : Progressive
Compression mode                 : Lossy
Bits/(Pixel*Frame)               : 0.243
Stream size                      : 647 MiB (92%)
Writing library                  : XviD 64

Audio

Format                           : MPEG Audio
Format version                   : Version 1
Format profile                   : Layer 3
Mode                             : Joint stereo
Mode extension                   : MS Stereo
Codec ID                         : 55
Codec ID/Hint                    : MP3
Duration                         : 1h 37mn
Bit rate mode                    : Constant
Bit rate                         : 128 Kbps
Channel(s)                       : 2 channels
Sampling rate                    : 48.0 KHz
Compression mode                 : Lossy
Stream size                      : 56 MiB (7%)
Alignment                        : Split accross interleaves
Interleave, duration             : 33 ms (1.00 video frame)
Interleave, preload duration     : 500 ms









A Good Day to Die Hard 2013 FRENCH DVDRip XviD-SPARKS/A Good Day to Die Hard 2013 FRENCH DVDRip XviD-SPARKS.rar 735.052 MB
A Good Day to Die Hard 2013 FRENCH DVDRip XviD-SPARKS/Screenshot03 .png 44.498 KB
A Good Day to Die Hard 2013 FRENCH DVDRip XviD-SPARKS/Screenshot02 .png 40.103 KB
Gathering some info...

Register and log in Isohunt and see no captcha anymore!

4000 symbols left
Hash e8c9dc28da2cdd9c01b2475a7181c5a12fb5cc36

Related torrents for "A Good Day to Die Hard 2013 FRENCH DVDRip XviD-SPARKS"

Torrent search:

french 2013