Beautiful Creatures 2013 FRENCH DVDRip XviD-eXceSs

Size 735.219 MB   0 seeders     Added 2013-03-02 00:44:49

To download or stream you need BitLord. Visit them at BitLord.com
Beautiful Creatures 2013 FRENCH DVDRip XviD-eXceSs



Movie info :
GENRE............: Drama | Fantasy | Romance 
IMDB RATING......: 6,1/10 from 3.054 users   Metascore: 51/100


STATS:

Video
ID                               : 0
Format                           : MPEG-4 Visual
Format profile                   : Advanced Simple@L5
Format settings, BVOP            : 2
Format settings, QPel            : No
Format settings, GMC             : No warppoints
Format settings, Matrix          : Default (MPEG)
Muxing mode                      : Packed bitstream
Codec ID                         : XVID
Codec ID/Hint                    : XviD
Duration                         : 2h 04mn
Bit rate                         : 986 Kbps
Width                            : 720 pixels
Height                           : 320 pixels
Display aspect ratio             : 2.25:1
Frame rate                       : 29.970 fps
Color space                      : YUV
Chroma subsampling               : 4:2:0
Bit depth                        : 8 bits
Scan type                        : Progressive
Compression mode                 : Lossy
Bits/(Pixel*Frame)               : 0.243
Stream size                      : 647 MiB (92%)
Writing library                  : XviD 64

Audio

Format                           : MPEG Audio
Format version                   : Version 1
Format profile                   : Layer 3
Mode                             : Joint stereo
Mode extension                   : MS Stereo
Codec ID                         : 55
Codec ID/Hint                    : MP3
Duration                         : 2h 04mn
Bit rate mode                    : Constant
Bit rate                         : 128 Kbps
Channel(s)                       : 2 channels
Sampling rate                    : 48.0 KHz
Compression mode                 : Lossy
Stream size                      : 56 MiB (7%)
Alignment                        : Split accross interleaves
Interleave, duration             : 33 ms (1.00 video frame)
Interleave, preload duration     : 500 ms









Beautiful Creatures 2013 FRENCH DVDRip XviD-eXceSs/Beautiful Creatures 2013 FRENCH DVDRip XviD-eXceSs.rar 735.052 MB
Beautiful Creatures 2013 FRENCH DVDRip XviD-eXceSs/Screenshot03.png 62.494 KB
Beautiful Creatures 2013 FRENCH DVDRip XviD-eXceSs/Screenshot01.png 52.267 KB
Gathering some info...

Register and log in Isohunt and see no captcha anymore!

4000 symbols left
Hash 3a1f4e779dee60c8a8af28a6f8a605e35f4aa006