Hotel Transylvania 2012 FRENCH DVDRip XviD AC3-SANTi

Size 735.365 MB   0 seeders     Added 2013-03-02 01:50:53

To download or stream you need BitLord. Visit them at BitLord.com
Hotel Transylvania 2012 FRENCH DVDRip XviD AC3-SANTi



Movie info :
GENRE............:  Animation | Comedy | Family 
IMDB RATING......:  7,0/10 from 42.907 users   Metascore: 47/100


STATS:

Video
ID                               : 0
Format                           : MPEG-4 Visual
Format profile                   : Advanced Simple@L5
Format settings, BVOP            : 2
Format settings, QPel            : No
Format settings, GMC             : No warppoints
Format settings, Matrix          : Default (MPEG)
Muxing mode                      : Packed bitstream
Codec ID                         : XVID
Codec ID/Hint                    : XviD
Duration                         : 1h 31mn
Bit rate                         : 986 Kbps
Width                            : 720 pixels
Height                           : 320 pixels
Display aspect ratio             : 2.25:1
Frame rate                       : 29.970 fps
Color space                      : YUV
Chroma subsampling               : 4:2:0
Bit depth                        : 8 bits
Scan type                        : Progressive
Compression mode                 : Lossy
Bits/(Pixel*Frame)               : 0.243
Stream size                      : 647 MiB (92%)
Writing library                  : XviD 64

Audio

Format                           : MPEG Audio
Format version                   : Version 1
Format profile                   : Layer 3
Mode                             : Joint stereo
Mode extension                   : MS Stereo
Codec ID                         : 55
Codec ID/Hint                    : MP3
Duration                         : 1h 31mn
Bit rate mode                    : Constant
Bit rate                         : 128 Kbps
Channel(s)                       : 2 channels
Sampling rate                    : 48.0 KHz
Compression mode                 : Lossy
Stream size                      : 56 MiB (7%)
Alignment                        : Split accross interleaves
Interleave, duration             : 33 ms (1.00 video frame)
Interleave, preload duration     : 500 ms









Hotel Transylvania 2012 FRENCH DVDRip XviD AC3-SANTi/Hotel Transylvania 2012 FRENCH DVDRip XviD AC3-SANTi.rar 735.052 MB
Hotel Transylvania 2012 FRENCH DVDRip XviD AC3-SANTi/Screenshot01.png 206.232 KB
Hotel Transylvania 2012 FRENCH DVDRip XviD AC3-SANTi/Screenshot02.jpg 58.304 KB
Gathering some info...

Register and log in Isohunt and see no captcha anymore!

4000 symbols left
Hash 5bf5852aec89e85f11e7fcf0d5eb83ba06bbe579