Barbie in the Pink Shoes 2013 FRENCH DVDRiP XViD - TASTE

Size 735.089 MB   0 seeders     Added 2013-03-02 02:09:10

To download or stream you need BitLord. Visit them at BitLord.com
Barbie in the Pink Shoes 2013 FRENCH  DVDRiP XViD - TASTE



Movie info :
GENRE............: Family | Fantasy
 

STATS:

Video
ID                               : 0
Format                           : MPEG-4 Visual
Format profile                   : Advanced Simple@L5
Format settings, BVOP            : 2
Format settings, QPel            : No
Format settings, GMC             : No warppoints
Format settings, Matrix          : Default (MPEG)
Muxing mode                      : Packed bitstream
Codec ID                         : XVID
Codec ID/Hint                    : XviD
Duration                         : 1h 15mn
Bit rate                         : 986 Kbps
Width                            : 720 pixels
Height                           : 320 pixels
Display aspect ratio             : 2.25:1
Frame rate                       : 29.970 fps
Color space                      : YUV
Chroma subsampling               : 4:2:0
Bit depth                        : 8 bits
Scan type                        : Progressive
Compression mode                 : Lossy
Bits/(Pixel*Frame)               : 0.243
Stream size                      : 647 MiB (92%)
Writing library                  : XviD 64

Audio

Format                           : MPEG Audio
Format version                   : Version 1
Format profile                   : Layer 3
Mode                             : Joint stereo
Mode extension                   : MS Stereo
Codec ID                         : 55
Codec ID/Hint                    : MP3
Duration                         : 1h 15mn
Bit rate mode                    : Constant
Bit rate                         : 128 Kbps
Channel(s)                       : 2 channels
Sampling rate                    : 48.0 KHz
Compression mode                 : Lossy
Stream size                      : 56 MiB (7%)
Alignment                        : Split accross interleaves
Interleave, duration             : 33 ms (1.00 video frame)
Interleave, preload duration     : 500 ms









Barbie in the Pink Shoes 2013 FRENCH DVDRiP XViD - TASTE/Barbie in the Pink Shoes 2013 FRENCH DVDRiP XViD - TASTE.rar 735.052 MB
Barbie in the Pink Shoes 2013 FRENCH DVDRiP XViD - TASTE/Screenshot02.png 14.057 KB
Barbie in the Pink Shoes 2013 FRENCH DVDRiP XViD - TASTE/Screenshot01.png 11.625 KB
Gathering some info...

Register and log in Isohunt and see no captcha anymore!

4000 symbols left
Hash 8dc5676545e31b92fe817d9b143e16852030f1e1

Related torrents for "Barbie in the Pink Shoes 2013 FRENCH DVDRiP XViD - TASTE"

Torrent search:

french 2013