imdb
rating

6.2
Parker

Parker (2013)

Action, Crime

Full description
quality   dvdrip hd bd telesync cam x264

Parker (2013) BRRip XVID AC3 Limited

Size 744.992 MB   0 seeders     Added 2013-03-02 03:17:46

Stream torrent
Starting‥ You need BitLord! Get it from BitLord.com
To download or stream you need BitLord. Visit them at BitLord.com
TITLE:

Parker (2013) BRRip XVID AC3 Limited

IMDb: http://www.imdb.com/title/tt1904996

Genre: Action | Crime | Thriller 


SOURCES:

VIDEO -  NEW SOURCE and UNKNOWN THANKS
AUDIO -  ADTRG THANKS
SUBS  -  ENG WHEN NEEDED

STATS:

video				 : mkv
ID                               : 0
Format                           : MPEG-4 Visual
Format profile                   : Advanced Simple@L5
Format settings, BVOP            : 2
Format settings, QPel            : No
Format settings, GMC             : No warppoints
Format settings, Matrix          : Default (MPEG)
Muxing mode                      : Packed bitstream
Codec ID                         : XVID
Codec ID/Hint                    : XviD
Duration                         : 1h 58mn
Bit rate                         : 2 511 Kbps
Width                            : 720 pixels
Height                           : 456 pixels
Display aspect ratio             : 2.500
Frame rate                       : 29.970 fps
Color space                      : YUV
Chroma subsampling               : 4:2:0
Bit depth                        : 8 bits
Scan type                        : Progressive
Compression mode                 : Lossy
Bits/(Pixel*Frame)               : 0.404
Stream size                      : 1.28 GiB (95%)
Writing library                  : XviD 64

Audio
ID                               : 1
Format                           : MPEG Audio
Format version                   : Version 1
Format profile                   : Layer 3
Mode                             : Joint stereo
Mode extension                   : MS Stereo
Codec ID                         : 55
Codec ID/Hint                    : MP3
Duration                         : 1h 58mn
Bit rate mode                    : Constant
Bit rate                         : 128 Kbps
Channel(s)                       : 2 channels
Sampling rate                    : 48.0 KHz
Compression mode                 : Lossy
Stream size                      : 66.7 MiB (5%)
Alignment                        : Split accross interleaves
Interleave, duration             : 33 ms (1.00 video frame)
Interleave, preload duration     : 500 ms
Parker (2013) BRRip XVID AC3 Limited/Parker (2013) BRRip XVID AC3 Limited/Sample/Parker (2013) BRRip XVID AC3 Limited Sample.mp4 11.684 MB
Parker (2013) BRRip XVID AC3 Limited/Parker (2013) BRRip XVID AC3 Limited/Parker (2013) BRRip XVID AC3 Limited.rar 733.308 MB
Parker (2013) BRRip XVID AC3 Limited/Parker (2013) BRRip XVID AC3 Limited/INFO!.txt 688 B
Gathering some info...

Register and log in Isohunt and see no captcha anymore!

4000 symbols left
Hash 724023e8d6520b6ce46700d719fdbe8d27da72d2

Related torrents for "Parker (2013) BRRip XVID AC3 Limited"

Torrent search:

bd 2013