imdb
rating

6.7
Safe Haven

Safe Haven (2013)

Romance

Full description

Safe Haven.DVDRip.XviD-DiAMOND

Size 719.652 MB   0 seeders     Added 2013-03-03 07:51:49

Stream torrent
Starting‥ You need BitLord! Get it from BitLord.com
To download or stream you need BitLord. Visit them at BitLord.com

Format version                           : Version 1
File size                                : 686 MiB
Duration                                 : 2h 08mn
Overall bit rate                         : 647 Kbps

Video
ID                                       : 1
Format                                   : MPEG-4 Visual
Format profile                           : Advanced Simple@L5
Format settings, BVOP                    : Yes
Format settings, QPel                    : No
Format settings, GMC                     : No warppoints
Format settings, Matrix                  : Default (H.263)
Codec ID                                 : V_MS/VFW/FOURCC / XVID
Codec ID/Hint                            : XviD
Duration                                 : 2h 28mn
Bit rate                                 : 555 Kbps
Width                                    : 608 pixels
Height                                   : 240 pixels
Display aspect ratio                     : 2.533
Frame rate mode                          : Constant
Frame rate                               : 25.000 fps
Color space                              : YUV
Chroma subsampling                       : 4:2:0
Bit depth                                : 8 bits
Scan type                                : Progressive
Compression mode                         : Lossy
Bits/(Pixel*Frame)                       : 0.152
Stream size                              : 588 MiB (86%)
Writing library                          : XviD 1.2.1 (UTC 2008-12-04)
Default                                  : Yes
Forced                                   : No

Audio
ID                                       : 2
Format                                   : MPEG Audio
Format version                           : Version 1
Format profile                           : Layer 3
Mode                                     : Joint stereo
Mode extension                           : MS Stereo
Codec ID                                 : A_MPEG/L3
Codec ID/Hint                            : MP3
Duration                                 : 2h 28mn
Bit rate mode                            : Constant
Bit rate                                 : 80.0 Kbps
Channel(s)                               : 2 channels
Sampling rate                            : 32.0 KHz
Compression mode                         : Lossy
Stream size                              : 85.1 MiB (12%)
Writing library                          : LAME3.99r
Encoding settings                        : -m j -V 4 -q 2 -lowpass 13.5 -b 80
Language                                 : English
Default                                  : Yes
Forced                                   : No	
Safe Haven.DVDRip.XviD-DiAMOND/subtitles/English/subtitles.srt 47.548 KB
Safe Haven.DVDRip.XviD-DiAMOND/subtitles/NL/subtitles.srt 71.182 KB
Safe Haven.DVDRip.XviD-DiAMOND/subtitles/Polish/subtitles.srt 31.875 KB
Gathering some info...

Register and log in Isohunt and see no captcha anymore!

4000 symbols left
Hash 5735e467e1f940cdb7862abb16255a53138eb8ae

Related torrents for "Safe Haven.DVDRip.XviD-DiAMOND"

Torrent search:

dvdrip 2013