Mere.Mehboob.1963.Dvdrip.X264.AAC.RRG.DADA.DBBIANS.Com.mp4

Size 945.602 MB   0 seeders     Added 2013-03-04 00:48:49

Stream torrent
Starting‚Ä• You need BitLord! Get it from BitLord.com
To download or stream you need BitLord. Visit them at BitLord.com
Cover -



    	image

Screens -

 
image.html

Info -

 
http://www.imdb.com/title/tt0266765/



General

Format : Mp4 Video
File size : 902 MiB
Duration : 2h 42mn
Overall bit rate : 775 Kbps

Video
Format : AVC
Format/Info : Advanced Video Codec
Format profile : Main@L3.0
Format settings, CABAC : Yes
Format settings, ReFrames : 3 frames
Format settings, GOP : M=1, N=25
Codec ID : 7
Duration : 2h 42mn
Bit rate : 638 Kbps
Width : 640 pixels
Height : 480 pixels
Display aspect ratio : 4:3
Frame rate mode : Constant
Frame rate : 25.000 fps
Color space : YUV
Bit depth : 8 bits
Scan type : Progressive
Bits/(Pixel*Frame) : 0.083
Stream size : 743 MiB (82%)

Audio
Format : AAC
Format/Info : Advanced Audio Codec
Format profile : LC
Codec ID : 10
Duration : 2h 42mn
Bit rate : 129 Kbps
Channel(s) : 2 channels
Channel positions : Front: L R
Sampling rate : 44.1 KHz
Compression mode : Lossy
Stream size : 150 MiB (17%) 

About this movie

Genres: Indian Cinema, Classics, Romance
Language: Hindi
Running time: 2:42:44
Released: Jan 1, 1963

 


Cast & Crew
Cast

    Ashok Kumar
    Rajendra Kumar
    Sadhana
    Nimmi
    Johnny Walker
    Pran
    Sundar
    Ameeta
    Mumtaz Begum

Directors

    H.S. Rawail

Producers

    Jagdish Raj
    H.S. Rawail



While studying in Aligarh University, Anwar (Rajendra Kumar) falls hopelessly in love with a veiled woman and is unable to get her out of his mind. Anwar meets up with the wealthy Nawab Buland Akhtar Changezi (Ashok Kumar) so that he can use his influence to secure a job. Nawab asks Anwar to teach his sister, Husna (Sadhana) poetry, to which he agrees, and eventually finds that she is the very same veiled woman he feel in love with. What follows is a series of misunderstandings that lead to mistaken identities and misdirected romances. Soon, Husna too falls in love with Anwar and Nawab approves of this alliance and makes arrangements for their wedding. But when Nawab finds out that Anwar's sister is a lowly courtesan by the name Najma (Nimmi), he calls off the wedding. Nawab, under the pressure of debt, arranges Husna's marriage to the wicked and wealthy Munne Raja (Pran), who is all set to auction Nawab's mansion. With the odds stacked against them, will Anwar and Husna triumph in their love?

		
Mere.Mehboob.1963.Dvdrip.X264.AAC.RRG.DADA.DBBIANS.Com.mp4 945.602 MB
Gathering some info...

Register and log in Isohunt and see no captcha anymore!

4000 symbols left
Hash 602150fcd2f0ef3589306c588de2a58ce9f0c0f1