imdb
rating

4.5
Love Bite

Love Bite (2012)

Comedy, Horror

Full description
quality   dvdrip x264 h264 hd bd fullhd

Love.Bite.2012.DVDRiP.AC3.5.1.XviD-Acesn8s

Size 1.52 GB   178 seeders     Added 2013-03-04 03:32:50

Stream torrent
Starting‥ You need BitLord! Get it from 1BitLord.com
10
To download or stream you need BitLord. Visit them at BitLord.com
Love.Bite.2012.DVDRiP.AC3.5.1.XviD-Acesn8s

Encoder                                  : Acesn8s
Format                                   : AVI
Format/Info                              : Audio Video Interleave
File size                                : 1.40 GiB
Duration                                 : 1h 27mn
Overall bit rate                         : 2 301 Kbps

Video
ID                                       : 0
Format                                   : MPEG-4 Visual
Format profile                           : Advanced Simple@L5
Format settings, BVOP                    : 1
Format settings, QPel                    : No
Format settings, GMC                     : No warppoints
Format settings, Matrix                  : Default (H.263)
Muxing mode                              : Packed bitstream
Codec ID                                 : XVID
Codec ID/Hint                            : XviD
Duration                                 : 1h 27mn
Bit rate                                 : 1 845 Kbps
Width                                    : 720 pixels
Height                                   : 304 pixels
Display aspect ratio                     : 2.35:1
Frame rate                               : 25.000 fps
Color space                              : YUV
Chroma subsampling                       : 4:2:0
Bit depth                                : 8 bits
Scan type                                : Progressive
Compression mode                         : Lossy
Bits/(Pixel*Frame)                       : 0.337
Stream size                              : 1.12 GiB (80%)
Writing library                          : XviD 1.2.1 (UTC 2008-12-04)

Audio
ID                                       : 1
Format                                   : AC-3
Format/Info                              : Audio Coding 3
Mode extension                           : CM (complete main)
Format settings, Endianness              : Big
Codec ID                                 : 2000
Duration                                 : 1h 27mn
Bit rate mode                            : Constant
Bit rate                                 : 448 Kbps
Channel(s)                               : 6 channels
Channel positions                        : Front: L C R, Side: L R, LFE
Sampling rate                            : 48.0 KHz
Bit depth                                : 16 bits
Compression mode                         : Lossy
Stream size                              : 279 MiB (19%)
Alignment                                : Aligned on interleaves
Interleave, duration                     : 64 ms (1.60 video frames)
Interleave, preload duration             : 192 ms
Source                                   : PAL DVDR-LS thx

IMDB: http://www.imdb.com/title/tt2027154/

Cast: Ed Speleers, Jessica Szohr, Kierston Wareing

Plot: School is over and summer has begun in the dead-end seaside town of 
Rainmouth. While Jamie's friends seem to be happy working in the local pie
factory by day and looking for sex by night,Jamie is bored out of his mind,
running his pot-head mother's B&B. He's desperate to get out of there. But 
when he meets beautiful, smart and sexy American traveler Juliana at a party, 
he's smitten - the world is not so small after all. But soon after Juliana's 
arrival, strange things start happening. One of the local teens goes missing 
at a party. Then, another. Jamie is warned by an enigmatic stranger that a werewolf is in town  and preying solely on virgin flesh! The only way to be safe seems to be to pop your cherry. (But that can't be true... can it?) As the locals are picked off one by one, the boys fear that a werewolf is indeed after them. And for all their talk, it turns out none of them have ever had sex before... Pretty soon, everyone is dying to get laid.
 

Screens:
 
image
 
image
 
image
 
image
 
image
Screens: 		
Love.Bite.2012.DVDRiP.AC3.5.1.XviD-Acesn8s/Love.Bite.2012.DVDRiP.AC3.5.1.XviD.avi 1.502 GB
Love.Bite.2012.DVDRiP.AC3.5.1.XviD-Acesn8s/Sample.avi 18.131 MB
Love.Bite.2012.DVDRiP.AC3.5.1.XviD-Acesn8s/Torrent Downloaded From ExtraTorrent.com.txt 339 B
Gathering some info...

Register and log in Isohunt and see no captcha anymore!

4000 symbols left
Hash 99545dedb2a6be25d107832878382e4d2e70ce62

Related torrents for "Love.Bite.2012.DVDRiP.AC3.5.1.XviD-Acesn8s"

Torrent search:

dvdrip 2012