Mithunam (2012) DvdRip X264 DTS ESubs 720P [Team Jaffa].mkv Verified

Size 2.421 GB   0 seeders     Added 2013-03-04 03:58:38

Stream torrent
Starting‥ You need BitLord! Get it from BitLord.com
To download or stream you need BitLord. Visit them at BitLord.com
							Quote:
General
Format : Matroska
Format version : Version 4 / Version 2
File size : 2.00 GiB
Duration : 1h 59mn
Overall bit rate : 2 395 Kbps
Writing application : mkvmerge v6.0.0 ('Coming Up For Air'
Writing library : libebml v1.3.0 + libmatroska v1.4.0
Video
ID : 1
Format : AVC
Format/Info : Advanced Video Codec
Format profile : High@L3.1
Format settings, CABAC : Yes
Format settings, ReFrames : 4 frames
Codec ID : V_MPEG4/ISO/AVC
Duration : 1h 59mn
Bit rate : 1 944 Kbps
Width : 1 280 pixels
Height : 544 pixels
Display aspect ratio : 2.35:1
Frame rate mode : Constant
Frame rate : 23.976 fps
Color space : YUV
Chroma subsampling : 4:2:0
Bit depth : 8 bits
Scan type : Progressive
Bits/(Pixel*Frame) : 0.116
Stream size : 1.59 GiB (79%)
Writing library : x264 core 129 r2245 bc13772
Language : English
Default : Yes
Forced : No
Audio
ID : 2
Format : DTS
Format/Info : Digital Theater Systems
Mode : 16
Format settings, Endianness : Big
Codec ID : A_DTS
Duration : 1h 59mn
Bit rate mode : Constant
Bit rate : 755 Kbps
Channel(s) : 6 channels
Channel positions : Front: L C R, Side: L R, LFE
Sampling rate : 48.0 KHz
Bit depth : 24 bits
Compression mode : Lossy
Stream size : 645 MiB (28%)
Default : Yes
Forced : No
Text
ID : 3
Format : VobSub
Muxing mode : zlib
Codec ID : S_VOBSUB
Codec ID/Info : The same subtitle format used on DVDs
Language : English
Default : Yes
Forced : No
Mithunam (2012) DvdRip X264 DTS ESubs 720P [Team Jaffa].mkv 2.421 GB
Gathering some info...

Register and log in Isohunt and see no captcha anymore!

4000 symbols left
Hash 370ec58695409bc46acaf69170a5766d5d1cc913