Bhoot Returns (2012) DvdRip XviD 5.1CH ESubs 1CD [Team Jaffa] Verified

Size 734.949 MB   0 seeders     Added 2013-03-04 03:58:31

Stream torrent
Starting‚Ä• You need BitLord! Get it from 1BitLord.com
To download or stream you need BitLord. Visit them at BitLord.com
							Quote:
General
Format : AVI
Format/Info : Audio Video Interleave
File size : 698 MiB
Duration : 1h 24mn
Overall bit rate : 1 155 Kbps
Video
ID : 0
Format : MPEG-4 Visual
Format profile : Advanced Simple@L5
Format settings, BVOP : 2
Format settings, QPel : No
Format settings, GMC : No warppoints
Format settings, Matrix : Default (H.263)
Codec ID : XVID
Codec ID/Hint : XviD
Duration : 1h 24mn
Bit rate : 922 Kbps
Width : 640 pixels
Height : 288 pixels
Display aspect ratio : 2.222
Frame rate : 29.970 fps
Color space : YUV
Chroma subsampling : 4:2:0
Bit depth : 8 bits
Scan type : Progressive
Compression mode : Lossy
Bits/(Pixel*Frame) : 0.167
Stream size : 557 MiB (80%)
Writing library : XviD 1.2.1 (UTC 2008-12-04)
Audio
ID : 1
Format : AC-3
Format/Info : Audio Coding 3
Mode extension : CM (complete main)
Format settings, Endianness : Big
Codec ID : 2000
Duration : 1h 24mn
Bit rate mode : Constant
Bit rate : 224 Kbps
Channel(s) : 6 channels
Channel positions : Front: L C R, Side: L R, LFE
Sampling rate : 48.0 KHz
Bit depth : 16 bits
Compression mode : Lossy
Stream size : 135 MiB (19%)
Alignment : Aligned on interleaves
Interleave, duration : 64 ms (1.92 video frames)
Interleave, preload duration : 192 ms
Title : AudioFile_80_new
Subs: English
Bhoot Returns (2012) DvdRip XviD 5.1CH ESubs 1CD [Team Jaffa]/Bhoot Returns (2012) DvdRip XviD 5.1CH ESubs 1CD [Team Jaffa].avi 731.978 MB
Bhoot Returns (2012) DvdRip XviD 5.1CH ESubs 1CD [Team Jaffa]/Bhoot Returns (2012) DvdRip XviD 5.1CH ESubs 1CD [Team Jaffa].sub 2.931 MB
Bhoot Returns (2012) DvdRip XviD 5.1CH ESubs 1CD [Team Jaffa]/Bhoot Returns (2012) DvdRip XviD 5.1CH ESubs 1CD [Team Jaffa].idx 39.751 KB
Gathering some info...

Register and log in Isohunt and see no captcha anymore!

4000 symbols left
Hash 5d58232f50f9f93b09f4e22c82c1d09e898f81ce