Cat Stevens (1080p) Xvid Flac EAC Mp3 320kbs Hectorbusinspector

Size 4.299 GB   0 seeders     Added 2013-03-04 08:58:32

Stream torrent
Starting‥ You need BitLord! Get it from 1BitLord.com
To download or stream you need BitLord. Visit them at BitLord.com
							
Description
The Very Best Of Cat Stevens is a new incarnation of Best Of Cat Stevens repertoire.
This unique package consists of CD and DVD with the music CD featuring 24 Cat Stevens
masterpieces from track 1 with Moonshadow through to the final song If You Want To Sing Out Sing Out.
The DVD features four promotional videos and rare classic footage from the BBC in 1971 highlighting
videos of Moonshadow, Wild World and Father & Son. This BBC Granada TV footage, the live performances
and promotional videos really complete this package and make this collection a rare find.
Disc 1:
Moonshadow
Father and Son
Morning Has Broken
Wild World
The First Cut Is the Deepest (Stereo Version)
Lady d'Arbanville
Oh Very Young
Matthew & Son
Sitting
Hard Headed Woman
I Love My Dog
Rubylove
Don't Be Shy
Can't Keep It In
Here Comes My Baby
Into White
(Remember the Days of The) Old School
Where Do the Children Play
How Can I Tell You
Another Saturday Night
Sad Lisa
Just Another Night
Peace Train
If You Want to Sing Out Sing Out
Disc 2:
Moonshadow (Video)
Wild World (Video)
Father and Son (Video)
Hard Headed Woman (Video)
Where Do the Children Play? (Video)
(Remember the Days of The) Old Schoolyard (Video)
Teaser and the Firecat (Video)
Format : FLAC
Format/Info : Free Lossless Audio Codec
File size : 17.3 MiB
Duration : 2mn 50s
Overall bit rate mode : Variable
Overall bit rate : 849 Kbps
Album : The Very Best Of
Part : 1
Part/Total : 1
Track name : Moonshadow
Track name/Position : 01
Track name/Total : 24
Performer : Stevens, Cat
Genre : Rock
Recorded date : 2003
Audio
Format : FLAC
Format/Info : Free Lossless Audio Codec
Duration : 2mn 50s
Bit rate mode : Variable
Bit rate : 849 Kbps
Channel(s) : 2 channels
Sampling rate : 44.1 KHz
Bit depth : 16 bits
Stream size : 17.3 MiB (100%)
Writing library : libFLAC 1.2.1 (UTC 2007-09-17)
Vlc For best Results.
Format : AVI
Format/Info : Audio Video Interleave
Format profile : OpenDML
File size : 3.39 GiB
Duration : 27mn 17s
Overall bit rate : 17.8 Mbps
Writing application : Lavf54.16.104
Video
ID : 0
Format : MPEG-4 Visual
Format profile : Advanced Simple@L1
Format settings, BVOP : No
Format settings, QPel : No
Format settings, GMC : No warppoints
Format settings, Matrix : Default (H.263)
Codec ID : XVID
Codec ID/Hint : XviD
Duration : 27mn 17s
Bit rate : 17.5 Mbps
Width : 1 920 pixels
Height : 1 080 pixels
Display aspect ratio : 16:9
Frame rate : 25.000 fps
Color space : YUV
Chroma subsampling : 4:2:0
Bit depth : 8 bits
Scan type : Progressive
Compression mode : Lossy
Bits/(Pixel*Frame) : 0.338
Stream size : 3.34 GiB (99%)
Writing library : Lavc54.40.100
Audio
ID : 1
Format : AC-3
Format/Info : Audio Coding 3
Mode extension : CM (complete main)
Format settings, Endianness : Big
Codec ID : 2000
Duration : 27mn 17s
Bit rate mode : Constant
Bit rate : 224 Kbps
Channel(s) : 6 channels
Channel positions : Front: L C R, Side: L R, LFE
Sampling rate : 48.0 KHz
Bit depth : 16 bits
Compression mode : Lossy
Stream size : 43.4 MiB (1%)
Alignment : Aligned on interleaves
Interleave, duration : 32 ms (0.80 video frame)
Plus Mp3 320kbs
						
Cat Stevens (1080p) Xvid Flac EAC Mp3 320kbs Hectorbusinspector/Generic video (AVI)/CAT_STEVENS.avi 3.635 GB
Cat Stevens (1080p) Xvid Flac EAC Mp3 320kbs Hectorbusinspector/EAC Flac Flies/23 Peace Train.flac 25.985 MB
Cat Stevens (1080p) Xvid Flac EAC Mp3 320kbs Hectorbusinspector/EAC Flac Flies/22 Just Another Night.flac 23.37 MB
Gathering some info...

Register and log in Isohunt and see no captcha anymore!

4000 symbols left
Hash 69d2c9184060c0928f462a0c1eb797145f5c9dd0