imdb
rating

3.6
Jack the Reaper

Jack the Reaper (2011)

Horror

Full description
quality   dvdrip x264 hd bd fullhd h264

Jack.the.Reaper.2011 BRRip XViD juggs

Size 752.104 MB   0 seeders     Added 2013-03-04 18:57:38

Stream torrent
Starting‥ You need BitLord! Get it from 1BitLord.com
To download or stream you need BitLord. Visit them at BitLord.com
							
Source : VETOhttp://www.imdb.com/title/tt1552423/
Format : AVI
Format/Info : Audio Video Interleave
File size : 701 MiB
Duration : 1h 26mn
Overall bit rate : 1 136 Kbps
Writing library : VirtualDub build 32842/release
Video
ID : 0
Format : MPEG-4 Visual
Format profile : Advanced Simple@L5
Format settings, BVOP : 4
Format settings, QPel : No
Format settings, GMC : No warppoints
Format settings, Matrix : Default (H.263)
Muxing mode : Packed bitstream
Codec ID : XVID
Codec ID/Hint : XviD
Duration : 1h 26mn
Bit rate : 999 Kbps
Width : 640 pixels
Height : 352 pixels
Display aspect ratio : 16:9
Frame rate : 23.976 fps
Color space : YUV
Chroma subsampling : 4:2:0
Bit depth : 8 bits
Scan type : Progressive
Compression mode : Lossy
Bits/(Pixel*Frame) : 0.185
Stream size : 616 MiB (88%)
Writing library : XviD 64
Audio
ID : 1
Format : MPEG Audio
Format version : Version 1
Format profile : Layer 3
Codec ID : 55
Codec ID/Hint : MP3
Duration : 1h 26mn
Bit rate mode : Constant
Bit rate : 128 Kbps
Channel(s) : 2 channels
Sampling rate : 44.1 KHz
Compression mode : Lossy
Stream size : 78.9 MiB (11%)
Alignment : Split accross interleaves
Interleave, duration : 42 ms (1.00 video frame)
Interleave, preload duration : 500 ms
Writing library : LAME3.99r
Encoding settings : -m s -V 4 -q 3 -lowpass 17 -b 128
Jack.the.Reaper.2011 BRRip XViD juggs/Jack.the.Reaper.2011 BRRip XViD juggs.avi 734.757 MB
Jack.the.Reaper.2011 BRRip XViD juggs/Torrent Downloaded From ExtraTorrent.com.txt 339 B
Jack.the.Reaper.2011 BRRip XViD juggs/sample.avi 17.347 MB
Gathering some info...

Register and log in Isohunt and see no captcha anymore!

4000 symbols left
Hash cb9e5b3f9ec00f292899ecbbecef4fbbd1fb23e2

Related torrents for "Jack.the.Reaper.2011 BRRip XViD juggs"

Torrent search:

bd 2011