Last Dance 2012 BRRip XviD juggs

Size 747.261 MB   0 seeders     Added 2013-03-04 19:39:24

Stream torrent
Starting‥ You need BitLord! Get it from BitLord.com
To download or stream you need BitLord. Visit them at BitLord.com
							
Source : PFahttp://www.imdb.com/title/tt2294705/
Format : AVI
Format/Info : Audio Video Interleave
File size : 701 MiB
Duration : 1h 28mn
Overall bit rate : 1 105 Kbps
Writing library : VirtualDub build 32842/release
Video
ID : 0
Format : MPEG-4 Visual
Format profile : Advanced Simple@L5
Format settings, BVOP : 4
Format settings, QPel : No
Format settings, GMC : No warppoints
Format settings, Matrix : Default (H.263)
Muxing mode : Packed bitstream
Codec ID : XVID
Codec ID/Hint : XviD
Duration : 1h 28mn
Bit rate : 968 Kbps
Width : 640 pixels
Height : 352 pixels
Display aspect ratio : 16:9
Frame rate : 24.000 fps
Color space : YUV
Chroma subsampling : 4:2:0
Bit depth : 8 bits
Scan type : Progressive
Compression mode : Lossy
Bits/(Pixel*Frame) : 0.179
Stream size : 614 MiB (88%)
Writing library : XviD 64
Audio
ID : 1
Format : MPEG Audio
Format version : Version 1
Format profile : Layer 3
Codec ID : 55
Codec ID/Hint : MP3
Duration : 1h 28mn
Bit rate mode : Constant
Bit rate : 128 Kbps
Channel(s) : 2 channels
Sampling rate : 44.1 KHz
Compression mode : Lossy
Stream size : 81.2 MiB (12%)
Alignment : Split accross interleaves
Interleave, duration : 42 ms (1.00 video frame)
Interleave, preload duration : 500 ms
Writing library : LAME3.99r
Encoding settings : -m s -V 4 -q 3 -lowpass 17 -b 128
Plot
Last Dance follows the story of Sadiq Mohammad (Firass Dirani), a young radical Palestinian who, after fleeing from a failed suicide bombing of a synagogue, holds holocaust survivor Ulah Lippman (Julia Blake) hostage in her apartment. Desperately wounded, Sadiq hides in Ulahs flat, planning his next move. As the police close in, Sadiq and Ulah are forced to confront their own pasts as their present collide.
[embed=youtube]http://www.youtube.com/watch?v=LYyGeRHAmMs[/embed]
						
Last Dance 2012 BRRip XviD juggs/Last Dance 2012 BRRip XviD juggs.avi 734.849 MB
Last Dance 2012 BRRip XviD juggs/sample.avi 12.411 MB
Last Dance 2012 BRRip XviD juggs/Torrent Downloaded From ExtraTorrent.com.txt 339 B
Gathering some info...

Register and log in Isohunt and see no captcha anymore!

4000 symbols left
Hash 1ca23d5279ce1a330166a049710cbf284e38d3a0