imdb
rating

7.2
Britney Spears: The Femme Fatale Tour

Britney Spears: The Femme Fatale Tour (2011)

Documentary, Music

Full description
quality   x264 hd bd fullhd telesync dvdrip

Britney Spears Live The Femme Fatale Tour 2011 BRRip 720p x264 - PRiSTiNE [P2PDL]

Size 837.226 MB   49 seeders     Added 2013-03-04 22:57:54

Stream torrent
Starting‥ You need BitLord! Get it from 1BitLord.com
To download or stream you need BitLord. Visit them at BitLord.com
							Britney Spears Live The Femme Fatale Tour 2011 BRRip 720p x264 - PRiSTiNE
Genre: Music
Plot: A live concert performance of Grammy-winning pop phenomenon 
Britney Spears at the Air Canada Centre in Toronto.
Director: Ted Kenney, Daniel 'Cloud' Campos
Stars: Britney Spears, Nicki Minaj, Sabi
Rated: PG 13IMDbTrailer
General
Complete name : Britney Spears Live The Femme Fatale Tour 2011 BRRip 720p x264 - PRiSTiNE.mp4
Format : MPEG-4
Format profile : Base Media
Codec ID : isom
File size : 788 MiB
Duration : 1h 25mn
Overall bit rate mode : Variable
Overall bit rate : 1 282 Kbps
Source : 1080p MKV AC3 (Thanks)
Video
Format : AVC
Format/Info : Advanced Video Codec
Bit rate : 1 199 Kbps
Width : 1 280 pixels
Height : 720 pixels
Display aspect ratio : 16:9
Frame rate mode : Constant
Frame rate : 23.976 fps
Bit depth : 8 bits
Bits/(Pixel*Frame) : 0.054
Stream size : 737 MiB (94%)
Writing library : x264 core 129 r2245 bc13772
Audio
Format : AAC
Duration : 1h 25mn
Bit rate mode : Variable
Bit rate : 80.0 Kbps
Channel(s) : 2 channels
Channel positions : Front: L R
Sampling rate : 48.0 KHz / 24.0 KHz
Stream size : 49.2 MiB (6%)
Language : English
Subtitle : NoScreens:Thumbs:
----------------------------------------------------------------------------------------------------Encoded using revolutionary 10bit encoding, which enables us to provide you more crispier 
and sharper images at small sizes, just make sure you follow our instructions without a fault.
Recommend to you to use latest version of VLC player. Install K-Lite Codec Pack or shark007 codecs
in case of any kind of problem in playback (For non-VLC Media Player users). Alternatively, install
Core AVC codecs, the fastest decoder that there is coupled with Community Center Codec Pack and play
on Windows Media Player Classic. Check sample to be sure.
Enjoy!
Greets to: VYTO, a2zRG, MusiK_KinG, Kuroyukihime, TorDigger, Ash968, StyLishSaLH, Masta and staff members at
ExtraTorrent, TPB, H33T, KAT, 1337x, PublicHD, Ahashare, BTScene, SilverTorrent, LimeTorrents, TorrentMafia,
P2PDL, and all others.
Encoder Notes: Looking For Early Access To Anything You Can Provide DVDScr, R5, DVDR, BluRay, Direct
Audio, Early Music Releases, Seedboxes, Dedicated Servers anything u can provide, Advance / Promo CDs/
DVDs. If You Got anything to offer contact me at "prg@hush.com".
						
Britney Spears Live The Femme Fatale Tour 2011 BRRip 720p x264 - PRiSTiNE [P2PDL]/Britney Spears Live The Femme Fatale Tour 2011 BRRip 720p x264 - PRiSTiNE/Britney Spears Live The Femme Fatale Tour 2011 BRRip 720p x264 - PRiSTiNE.mp4 826.004 MB
Britney Spears Live The Femme Fatale Tour 2011 BRRip 720p x264 - PRiSTiNE [P2PDL]/Sample/Sample.mp4 10.754 MB
Britney Spears Live The Femme Fatale Tour 2011 BRRip 720p x264 - PRiSTiNE [P2PDL]/Sample/Cover.png 461.988 KB
Gathering some info...

Register and log in Isohunt and see no captcha anymore!

4000 symbols left
Hash ac67925f0e86f3943c3ca1fd06ccc1d9ba35a737

Related torrents for "Britney Spears Live The Femme Fatale Tour 2011 BRRip 720p x264 - PRiSTiNE [P2PDL]"

Torrent search:

x264 hd bd 2011