Mr.Romeo.1974.1CD.Dvdrip.X264.AAC.RRG.DADA.DBBIANS.Com.mp4

Size 790.086 MB   0 seeders     Added 2013-03-05 06:01:32

Stream torrent
Starting‚Ä• You need BitLord! Get it from 1BitLord.com
To download or stream you need BitLord. Visit them at BitLord.com
Cover -


    	image
Screens -

 
image.html

Info -

General

Format                                   : MP4 Video
File size                                : 753 MiB
Duration                                 : 2h 18mn
Overall bit rate                         : 762 Kbps


Video
Format                                   : AVC
Format/Info                              : Advanced Video Codec
Format profile                           : Main@L3.0
Format settings, CABAC                   : Yes
Format settings, ReFrames                : 3 frames
Format settings, GOP                     : M=1, N=25
Codec ID                                 : 7
Duration                                 : 2h 18mn
Bit rate                                 : 625 Kbps
Width                                    : 640 pixels
Height                                   : 480 pixels
Display aspect ratio                     : 4:3
Frame rate mode                          : Constant
Frame rate                               : 25.000 fps
Color space                              : YUV
Chroma subsampling                       : 4:2:0
Bit depth                                : 8 bits
Scan type                                : Progressive
Bits/(Pixel*Frame)                       : 0.081
Stream size                              : 618 MiB (82%)

Audio
Format                                   : AAC
Format/Info                              : Advanced Audio Codec
Format profile                           : LC
Codec ID                                 : 10
Duration                                 : 2h 18mn
Bit rate                                 : 129 Kbps
Channel(s)                               : 2 channels
Channel positions                        : Front: L R
Sampling rate                            : 44.1 KHz
Compression mode                         : Lossy
Stream size                              : 127 MiB (17%)
 
http://www.imdb.com/title/tt0422775/

About this movie

    Genres:
Indian Cinema, Classics, Romance
    Language:
Hindi
    Running time:
2:18:20
    Released:
Jan 1, 1974

Cast & Crew

    Shashi Kapoor
    Rinku Jaiswal
    Kiran Kumar
    Sarita
    Utpal Dutt
    Narendra Nath
    Ranjeet
    Rajan Haksar
    Raj Kishore

Directors

    Subhash Mukherjee

Producers

    Subodh Mukherji



Joginder Pal kills a police constable, and Mr. Saxena becomes the only eye-witness to this murder. He comes forward to testify and as a result Joginder gets arrested and charged with murder. Joginder's father Mr. Pal is Saxena's best friend and pleads with Saxena to change his witness statement, but Saxena refuses to do so, and as a result Pal's son gets convicted and sentenced to death. Pal swears to avenge his son's death and destroy Saxena's family. Years later, Saxena's sons, Ramesh (Shashi Kapoor) and Suresh (Kiran Kumar), have grown up. While Suresh, the younger son, is serious, studious, and business-minded, Ramesh is the opposite. Pal's son, Prem (Narendra Nath), befriends Suresh and gets him addicted to the world of girls, drugs and alcohol. He falls in love with one of the girl's and wants to get married to her. Ramesh and his parents oppose this and Ramesh even threatens to kill the girl. Shortly afterwards, the girl gets killed, and a drug-induced Suresh immediately believes Ramesh to have commited the murder. In rage, Suresh abducts Ramesh's to-be bride, Sheetal Batra (Rinku Jaiswal). Now both brothers must fight each other until only one is left standing; much to the delight of Pal who orchestrated the entire treachery . Will the Saxena family survive the devious plan of Pal? 

		
Mr.Romeo.1974.1CD.Dvdrip.X264.AAC.RRG.DADA.DBBIANS.Com.mp4 790.086 MB
Gathering some info...

Register and log in Isohunt and see no captcha anymore!

4000 symbols left
Hash 2d29254023a12675e1f38fd70bd3ce91a9668b73