Eagles-Farewell I Tour Live From Melbourne (2004)-alE13

Size 5.582 GB   8 seeders     Added 2013-03-05 09:19:11

Stream torrent
Starting‥ You need BitLord! Get it from 1BitLord.com
10
To download or stream you need BitLord. Visit them at BitLord.com
							The file containing - sample!!!
Plik zawiera - sample !!!
Produkcja: Australia
Data: 20 July 2005
Reżyseria: Carol Dodds
Gatunek: Dokument, Rock, Country
Czas: 02:44:25
Opis Filmu:
Farewell 1 Tour-Live from Melbourne is a double DVD by Eagles, released 
in 2005 (see 2005 in music). It was filmed in Melbourne, Australia at the
 Rod Laver Arena on the 14, 15 and 17 of November 2004, in the same name 
tour, featuring two new songs. It's the second record as quartet, without 
Don Felder, but featuring a horn section.
The name 'Farewell Tour' has nothing to do with the band's plan to quit 
touring and this is confirmed by Glenn Frey's quote in the interview 
contained in the DVD: "The longer this goes on, the better these songs 
sound. There is a 'sort of' honesty in calling the tour Farewell 1, with 
its implication that Farewell 2 will follow soon."
More: 
Fenomenalna grupa Eagles nadal znajduje swoich odbiorców. Koncert ten 
zawiera wszystkie przeboje Eagles i został nagrany w 14, 15 i 17 listopada 2004 r. 
w Melbourne podczas pożegnalnej trasy koncertowej.
Grupa Eagles powstała latem 1971 roku w Los Angeles. Pierwszy skład zespołu stanowili 
Don Henley i Glenn Frey (jedyni muzycy, którzy związani są z zespołem przez cały 
okres jego działalności), oraz Bernie Leadon i Randy Meisner.
Więcej: http://pl.wikipedia.org/wiki/Eagles
Obsada:
Glenn Frey: Lead guitars, piano, keyboards, Lead vocals.
Joe Walsh: Lead guitars, Slide Guitar, keyboards, organ, Lead vocals.
Timothy B. Schmit: Bass guitar, Lead vocals.
Don Henley: drums, percussion, guitars, Lead vocals.
Dane techniczne:
Eagles-Farewell I Tour Live From Melbourne (2004)-alE13.mkv
Format : Matroska
Format version : Version 2
File size : 5.18 GiB
Duration : 2h 44mn
Overall bit rate : 4 507 Kbps
Movie name : Eagles-Farewell I Tour Live From Melbourne (2004)-alE13
Encoded date : UTC 2013-03-05 13:43:42
Writing application : mkvmerge v5.8.0 
Writing library : libebml v1.2.3 + libmatroska v1.3.0
Video
ID : 1
Format : AVC
Format/Info : Advanced Video Codec
Format profile : High@L3.1
Format settings, CABAC : Yes
Format settings, ReFrames : 2 frames
Muxing mode : Header stripping
Codec ID : V_MPEG4/ISO/AVC
Duration : 2h 44mn
Bit rate : 3 000 Kbps
Width : 1 280 pixels
Height : 720 pixels
Display aspect ratio : 16:9
Frame rate mode : Constant
Frame rate : 29.970 fps
Color space : YUV
Chroma subsampling : 4:2:0
Bit depth : 8 bits
Scan type : Progressive
Bits/(Pixel*Frame) : 0.109
Stream size : 3.34 GiB (65%)
Writing library : x264 core 112 r1834 a51816a
Audio
ID : 2
Format : DTS
Format/Info : Digital Theater Systems
Mode : 16
Format settings, Endianness : Big
Muxing mode : Header stripping
Codec ID : A_DTS
Duration : 2h 44mn
Bit rate mode : Constant
Bit rate : 1 509 Kbps
Channel(s) : 6 channels
Channel positions : Front: L C R, Side: L R, LFE
Sampling rate : 48.0 KHz
Bit depth : 24 bits
Compression mode : Lossy
Stream size : 1.73 GiB (33%)
Language : English
Menu
00:00:00.000 : en:Intro
00:01:35.361 : en:The Long Run
00:06:26.719 : en:New Kid In Town
00:11:29.388 : en:Wasted Time
00:17:41.493 : en:Peaceful Easy Feeling
00:22:06.024 : en:I Can't Tell You Why
00:27:05.824 : en:One Of These Nights
00:31:59.484 : en:One Day At A Time (new track!)
00:36:19.844 : en:Lyin' Eyes
00:42:49.033 : en:The Boys Of Summer
00:47:54.671 : en:In The City
00:52:26.076 : en:Already Gone
00:57:01.117 : en:Silent Spring (intro)
00:57:37.220 : en:Tequila Sunrise
01:01:07.730 : en:Love Will Keep Us Alive
01:05:44.640 : en:No More Cloudy Days (new track!)
01:10:44.807 : en:Hole In The World
01:15:17.045 : en:Take It To The Limit
01:19:17.252 : en:You Belong To The City
01:26:39.160 : en:Walk Away
01:30:35.029 : en:Sunset Grill
01:39:31.432 : en:Life's Been Good
01:47:19.266 : en:Dirty Laundry
01:53:36.309 : en:Funk #49
01:58:50.022 : en:Heartache Tonight
02:03:57.296 : en:Life In The Fast Lane
02:10:23.715 : en:Hotel California
02:19:24.656 : en:Rocky Mountain Way
02:25:15.940 : en:All She Wants To Do Is Dance
02:31:42.093 : en:Take It Easy
02:35:32.690 : en:Desperado
02:40:05.395 : en:End
						
Eagles-Farewell I Tour Live From Melbourne (2004)-alE13/Eagles-Farewell I Tour Live From Melbourne (2004)-alE13.mkv 5.558 GB
Eagles-Farewell I Tour Live From Melbourne (2004)-alE13/sample.mkv 21.049 MB
Eagles-Farewell I Tour Live From Melbourne (2004)-alE13/Eagles-Farewell-I-Tour-Live-From-Melbourne.jpg 563.858 KB
Gathering some info...

Register and log in Isohunt and see no captcha anymore!

4000 symbols left
Hash 9e9ce4a6e5da046a17b4a58b45f27cf4bd8c9a71

Related torrents for "Eagles-Farewell I Tour Live From Melbourne (2004)-alE13"

Torrent search:

2004