imdb
rating

3.7
The Devil's in the Details

The Devil's in the Details (2013)

Thriller

Full description
quality   x264 hd bd fullhd

The.Devils.in.the.Details.2013 BRRip XViD juggs

Size 745.456 MB   135 seeders     Added 2013-03-05 13:16:51

Stream torrent
Starting‥ You need BitLord! Get it from BitLord.com
10
To download or stream you need BitLord. Visit them at BitLord.com
Source : LCHD
 
http://www.imdb.com/title/tt2137359/


Format                                   : AVI
Format/Info                              : Audio Video Interleave
File size                                : 701 MiB
Duration                                 : 1h 40mn
Overall bit rate                         : 978 Kbps
Writing library                          : VirtualDub build 32842/release

Video
ID                                       : 0
Format                                   : MPEG-4 Visual
Format profile                           : Advanced Simple@L5
Format settings, BVOP                    : 4
Format settings, QPel                    : No
Format settings, GMC                     : No warppoints
Format settings, Matrix                  : Default (H.263)
Muxing mode                              : Packed bitstream
Codec ID                                 : XVID
Codec ID/Hint                            : XviD
Duration                                 : 1h 40mn
Bit rate                                 : 840 Kbps
Width                                    : 640 pixels
Height                                   : 256 pixels
Display aspect ratio                     : 2.500
Frame rate                               : 23.976 fps
Color space                              : YUV
Chroma subsampling                       : 4:2:0
Bit depth                                : 8 bits
Scan type                                : Progressive
Compression mode                         : Lossy
Bits/(Pixel*Frame)                       : 0.214
Stream size                              : 603 MiB (86%)
Writing library                          : XviD 64

Audio
ID                                       : 1
Format                                   : MPEG Audio
Format version                           : Version 1
Format profile                           : Layer 3
Codec ID                                 : 55
Codec ID/Hint                            : MP3
Duration                                 : 1h 40mn
Bit rate mode                            : Constant
Bit rate                                 : 128 Kbps
Channel(s)                               : 2 channels
Sampling rate                            : 44.1 KHz
Compression mode                         : Lossy
Stream size                              : 91.8 MiB (13%)
Alignment                                : Split accross interleaves
Interleave, duration                     : 42 ms (1.00 video frame)
Interleave, preload duration             : 500 ms
Writing library                          : LAME3.99r
Encoding settings                        : -m s -V 4 -q 3 -lowpass 17 -b 128


Plot
7 minutes from now in Nogales, Arizona. Thomas Conrad's life will forever change when he gets caught up in a Mexican cartels poetic game of drug mule chess. 

 
image 
image 
image 
image		
The.Devils.in.the.Details.2013 BRRip XViD juggs/The.Devils.in.the.Details.2013 BRRip XViD juggs.avi 735.414 MB
The.Devils.in.the.Details.2013 BRRip XViD juggs/Torrent Downloaded From ExtraTorrent.com.txt 339 B
The.Devils.in.the.Details.2013 BRRip XViD juggs/sample.avi 10.041 MB
Gathering some info...

Register and log in Isohunt and see no captcha anymore!

4000 symbols left
Hash 86dde1ea8907b7ecea736d90e0fdfc09ed7c6b2b

Related torrents for "The.Devils.in.the.Details.2013 BRRip XViD juggs"

Torrent search:

bd 2013