imdb
rating

3.7
The Devil's in the Details

The Devil's in the Details (2013)

Thriller

Full description
quality   x264 hd bd fullhd

[ www.Speed.Cd ] - The.Devils.in.the.Details.2013.BRRip.XviD.Ac3.Feel-Free

Size 771.658 MB   0 seeders     Added 2013-03-05 13:32:50

Stream torrent
Starting‥ You need BitLord! Get it from 1BitLord.com
To download or stream you need BitLord. Visit them at BitLord.com
- 
http://www.Speed.Cd
 
http://www.Speed.Cd       the fast  and The Hottest Private Tracker on the net

Please Seed back to make the speed Faster!!
 ............ NFO .............
-[img]image[/img]
[img]image[/img]


Genre:Thriller
Language:English
IMDb:http://www.imdb.com/title/tt2137359
Source:720p.BluRay.x264-LCHD Thanks
Encoder:Tony

Format                                   : AVI
Format/Info                              : Audio Video Interleave
File size                                : 735 MiB
Duration                                 : 1h 40mn
Overall bit rate                         : 1 025 Kbps

Video
ID                                       : 0
Format                                   : MPEG-4 Visual
Format profile                           : Advanced Simple@L5
Format settings, BVOP                    : 1
Format settings, QPel                    : No
Format settings, GMC                     : No warppoints
Format settings, Matrix                  : Default (H.263)
Codec ID                                 : XVID
Codec ID/Hint                            : XviD
Duration                                 : 1h 40mn
Bit rate                                 : 632 Kbps
Width                                    : 640 pixels
Height                                   : 264 pixels
Display aspect ratio                     : 2.40:1
Frame rate                               : 23.976 fps
Color space                              : YUV
Chroma subsampling                       : 4:2:0
Bit depth                                : 8 bits
Scan type                                : Progressive
Compression mode                         : Lossy
Bits/(Pixel*Frame)                       : 0.156
Stream size                              : 453 MiB (62%)
Writing library                          : XviD 1.2.1 (UTC 2008-12-04)

Audio
ID                                       : 1
Format                                   : AC-3
Format/Info                              : Audio Coding 3
Mode extension                           : CM (complete main)
Codec ID                                 : 2000
Duration                                 : 1h 40mn
Bit rate mode                            : Constant
Bit rate                                 : 384 Kbps
Channel(s)                               : 6 channels
Channel positions                        : Front: L C R, Side: L R, LFE
Sampling rate                            : 48.0 KHz
Bit depth                                : 16 bits
Compression mode                         : Lossy
Stream size                              : 275 MiB (37%)
Alignment                                : Aligned on interleaves
Interleave, duration                     : 42 ms (1.00 video frame)
Interleave, preload duration             : 512 ms

   
Plot:
  7 minutes from now in Nogales, Arizona. Thomas Conrad's life will forever change when he gets caught up in a Mexican cartels poetic game of drug mule chess.


Greets:
 CRYS,MiNiSTRY,INSPiRAL,IMAGINE,LKRG,ADTRG,FXG,3Li,FLAWL3SS,CrEwSaDe,TA,iLLUSiON,EMBER,HOPE,GooN,BBnRG,NOGRP,ETRG,BHRG,iLLUMiNATi,MiSTERE.ViSiON,DTRG SAFCuk009,LU,TheFalcon007,MYSTiC,PrisM,Noir,WBZ,LAP,Rx,Kingdom,SAFCuk009+Fabreezy,HDLiTE,TWiZTED,ETRG.ELEKTRI4KA,MAGNAT,CM8
                And to all the other p2p grps past and present		
[ www.Speed.Cd ] - The.Devils.in.the.Details.2013.BRRip.XviD.Ac3.Feel-Free/b00ajxo5b801lzzzzzzz.jpg 51.702 KB
[ www.Speed.Cd ] - The.Devils.in.the.Details.2013.BRRip.XviD.Ac3.Feel-Free/The.Devils.in.the.Details.2013.BRRip.XviD.Ac3.Feel-Free.avi 771.019 MB
[ www.Speed.Cd ] - The.Devils.in.the.Details.2013.BRRip.XviD.Ac3.Feel-Free/The.Devils.in.the.Details.2013.BRRip.XviD.Ac3.Feel-Free.nfo 3.289 KB
Gathering some info...

Register and log in Isohunt and see no captcha anymore!

4000 symbols left
Hash 3327c651181f336527126a329207f080740889d7

Related torrents for "[ www.Speed.Cd ] - The.Devils.in.the.Details.2013.BRRip.XviD.Ac3.Feel-Free"

Torrent search:

bd 2013