imdb
rating

8.0
Life of Pi

Life of Pi (2012)

Action, Adventure, Drama

Full description
quality   dvdrip dvd x264 hd bd fullhd

Life Of Pi [2012] BDRip XviD - CODY

Size 1.323 GB   11 seeders     Added 2013-03-05 17:30:53

Stream torrent
Starting‥ You need BitLord! Get it from BitLord.com
10
To download or stream you need BitLord. Visit them at BitLord.com
General
Complete name                            : Life Of Pi [2012] BDRip XviD - CODY.avi
Format                                   : AVI
Format/Info                              : Audio Video Interleave
File size                                : 1.10 GiB
Duration                                 : 2h 6mn
Overall bit rate                         : 1 242 Kbps
Writing application                      : VirtualDubMod 1.5.10.3 | www.virtualdub-fr.org || (build 2550/release)
Writing library                          : VirtualDubMod build 2550/release

Video
ID                                       : 0
Format                                   : MPEG-4 Visual
Format profile                           : Advanced Simple@L5
Format settings, BVOP                    : 4
Format settings, QPel                    : No
Format settings, GMC                     : No warppoints
Format settings, Matrix                  : Default (H.263)
Codec ID                                 : XVID
Codec ID/Hint                            : XviD
Duration                                 : 2h 6mn
Bit rate                                 : 1 104 Kbps
Width                                    : 720 pixels
Height                                   : 384 pixels
Display aspect ratio                     : 1.85:1
Frame rate                               : 23.976 fps
Color space                              : YUV
Chroma subsampling                       : 4:2:0
Bit depth                                : 8 bits
Scan type                                : Progressive
Compression mode                         : Lossy
Bits/(Pixel*Frame)                       : 0.167
Stream size                              : 1 003 MiB (89%)
Writing library                          : XviD 65

Audio
ID                                       : 1
Format                                   : MPEG Audio
Format version                           : Version 1
Format profile                           : Layer 3
Codec ID                                 : 55
Codec ID/Hint                            : MP3
Duration                                 : 2h 6mn
Bit rate mode                            : Constant
Bit rate                                 : 128 Kbps
Channel(s)                               : 2 channels
Sampling rate                            : 48.0 KHz
Compression mode                         : Lossy
Stream size                              : 116 MiB (10%)
Alignment                                : Aligned on interleaves
Interleave, duration                     : 42 ms (1.00 video frame)
Interleave, preload duration             : 504 ms
Writing library                          : LAME3.99r
Encoding settings                        : -m s -V 4 -q 2 -lowpass 17 -b 128

Audio language                           : English, Tamil, French

IMDB link:                                 http://www.imdb.com/title/tt0454876/

Subtitles included                       : English.srt, Romanian.srt 
                                           and Multipack Sub+idx converted from 
                                           pgs/sup from bluray

Please seed at least 1,5:1. This way this torrent has a chance to survive !

Thanks. Enjoy !                                   		                  		
Life Of Pi [2012] BDRip XviD - CODY/BluRay Subs Sub+Idx/Life Of Pi [2012] BDRip XviD - CODY.Arabian.idx 45.666 KB
Life Of Pi [2012] BDRip XviD - CODY/BluRay Subs Sub+Idx/Life Of Pi [2012] BDRip XviD - CODY.Arabian.sub 3.5 MB
Life Of Pi [2012] BDRip XviD - CODY/BluRay Subs Sub+Idx/Life Of Pi [2012] BDRip XviD - CODY.Bulgarian.idx 37.521 KB
Gathering some info...

Register and log in Isohunt and see no captcha anymore!

4000 symbols left
Hash e7d634236a368b071e21a734ea883192f3af4f7d

Related torrents for "Life Of Pi [2012] BDRip XviD - CODY"

Torrent search:

2012 bd