imdb
rating

4.1
Mafia

Mafia (2011)

Action

Full description
quality   dvdrip hd bd

Mafia 2011 BRRip XViD juggs

Size 745.408 MB   122 seeders     Added 2013-03-05 18:57:18

Stream torrent
Starting‥ You need BitLord! Get it from BitLord.com
To download or stream you need BitLord. Visit them at BitLord.com
							
Source : NOSCREENShttp://www.imdb.com/title/tt1849810/
Format : AVI
Format/Info : Audio Video Interleave
File size : 701 MiB
Duration : 1h 21mn
Overall bit rate : 1 196 Kbps
Writing library : VirtualDub build 32842/release
Video
ID : 0
Format : MPEG-4 Visual
Format profile : Advanced Simple@L5
Format settings, BVOP : 4
Format settings, QPel : No
Format settings, GMC : No warppoints
Format settings, Matrix : Default (H.263)
Muxing mode : Packed bitstream
Codec ID : XVID
Codec ID/Hint : XviD
Duration : 1h 21mn
Bit rate : 1 058 Kbps
Width : 640 pixels
Height : 352 pixels
Display aspect ratio : 16:9
Frame rate : 23.976 fps
Color space : YUV
Chroma subsampling : 4:2:0
Bit depth : 8 bits
Scan type : Progressive
Compression mode : Lossy
Bits/(Pixel*Frame) : 0.196
Stream size : 620 MiB (89%)
Writing library : XviD 64
Audio
ID : 1
Format : MPEG Audio
Format version : Version 1
Format profile : Layer 3
Codec ID : 55
Codec ID/Hint : MP3
Duration : 1h 21mn
Bit rate mode : Constant
Bit rate : 128 Kbps
Channel(s) : 2 channels
Sampling rate : 44.1 KHz
Compression mode : Lossy
Stream size : 75.0 MiB (11%)
Alignment : Split accross interleaves
Interleave, duration : 42 ms (1.00 video frame)
Interleave, preload duration : 500 ms
Writing library : LAME3.99r
Encoding settings : -m s -V 4 -q 3 -lowpass 17 -b 128
Plot
Its the 70s and criminal boss Renzo and his crew wreak havoc across the streets, leaving bodies
wherever they go. Detective Womack will stop at nothing to bring these thugs to justice, even if
it means breaking the law. Starring Ving Rhames, Pam Grier, Robert Patrick, and Persia White,
MAFIA delivers justice one bullet at a time.
[embed=youtube]http://www.youtube.com/watch?v=rQTHr87JSDw[/embed]
						
Mafia 2011 BRRip XViD juggs/Mafia 2011 BRRip XViD juggs.avi 734.586 MB
Mafia 2011 BRRip XViD juggs/Torrent Downloaded From ExtraTorrent.com.txt 339 B
Mafia 2011 BRRip XViD juggs/sample.avi 10.822 MB
Gathering some info...

Register and log in Isohunt and see no captcha anymore!

4000 symbols left
Hash b2469a00146f26d65de372f51056d0c8ae35a2c7

Related torrents for "Mafia 2011 BRRip XViD juggs"

Torrent search:

bd 2011