imdb
rating

5.3
Geordie Shore

Geordie Shore (2011)

Reality

Full description

Geordie.Shore.S05E03.PDTV.XviD-W33D.avi

Size 402.22 MB   0 seeders     Added 2013-03-05 21:25:56

Stream torrent
Starting‥ You need BitLord! Get it from 1BitLord.com
To download or stream you need BitLord. Visit them at BitLord.com
Season 5 Episode 3 of
There is tension in the Toon as James takes girlfriend Kate on a night out with the gang, leaving Holly unimpressed


General
Complete name :Geordie.Shore.S05E03.PDTV.XviD-W33D.avi
Format : AVI
Format/Info : Audio Video Interleave
Format profile : OpenDML
Format settings : rec
File size : 384 MiB
Duration : 43mn 58s
Overall bit rate mode : Variable
Overall bit rate : 1 219 Kbps
Writing application : AVI-Mux GUI 1.17.8.3, Feb 16 201019:42:50

Video
ID : 0
Format : MPEG-4 Visual
Format profile : Advanced Simple@L5
Format settings, BVOP : 2
Format settings, QPel : No
Format settings, GMC : No warppoints
Format settings, Matrix : Default (H.263)
Codec ID : XVID
Codec ID/Hint : XviD
Duration : 43mn 58s
Bit rate : 1 088 Kbps
Width : 704 pixels
Height : 384 pixels
Display aspect ratio : 1.85:1
Frame rate : 25.000 fps
Color space : YUV
Chroma subsampling : 4:2:0
Bit depth : 8 bits
Scan type : Progressive
Compression mode : Lossy
Bits/(Pixel*Frame) : 0.161
Stream size : 342 MiB (89%)
Writing library : XviD 1.1.2 (UTC 2006-11-01)

Audio
ID : 1
Format : MPEG Audio
Format version : Version 1
Format profile : Layer 3
Mode : Joint stereo
Mode extension : MS Stereo
Codec ID : 55
Codec ID/Hint : MP3
Duration : 43mn 58s
Bit rate mode : Variable
Bit rate : 128 Kbps
Channel(s) : 2 channels
Sampling rate : 48.0 KHz
Compression mode : Lossy
Stream size : 38.5 MiB (10%)
Alignment : Aligned on interleaves
Interleave, duration : 24 ms (0.60 video frame)
Interleave, preload duration : 216 ms
Writing library : LAME3.90.
Encoding settings : -m j -V 4 -q 2 -lowpass 17.6 --abr 128-------------------------------------Torrent downloaded from http://thepiratebay.se
Geordie.Shore.S05E03.PDTV.XviD-W33D.avi 402.22 MB
Gathering some info...

Register and log in Isohunt and see no captcha anymore!

4000 symbols left
Hash 3b3500f9597709bc8718d06e71143284258c7598

Related torrents for "Geordie.Shore.S05E03.PDTV.XviD-W33D.avi"

Torrent search:

season 05 hdtv episode 03