Bring Me The Horizon - Sleepwalking.mp4

Size 49.119 MB   0 seeders     Added 2013-03-06 05:16:37

Stream torrent
Starting‥ You need BitLord! Get it from BitLord.com
To download or stream you need BitLord. Visit them at BitLord.com
Taken from the new album 'Sempiternal' out 1st April through RCA

Format                                   : MPEG-4
Format profile                           : Base Media / Version 2
Codec ID                                 : mp42
File size                                : 46.8 MiB
Duration                                 : 3mn 56s
Overall bit rate mode                    : Variable
Overall bit rate                         : 1 660 Kbps
Encoded date                             : UTC 2013-02-27 03:54:28
Tagged date                              : UTC 2013-02-27 03:54:28
gsst                                     : 0
gstd                                     : 236820
gssd                                     : BC417A884HH1362562611647328
gshh                                     :

Video
ID                                       : 1
Format                                   : AVC
Format/Info                              : Advanced Video Codec
Format profile                           : High@L3.1
Format settings, CABAC                   : Yes
Format settings, ReFrames                : 1 frame
Codec ID                                 : avc1
Codec ID/Info                            : Advanced Video Coding
Duration                                 : 3mn 56s
Bit rate                                 : 1 466 Kbps
Maximum bit rate                         : 4 685 Kbps
Width                                    : 1 280 pixels
Height                                   : 720 pixels
Display aspect ratio                     : 16:9
Frame rate mode                          : Constant
Frame rate                               : 25.000 fps
Color space                              : YUV
Chroma subsampling                       : 4:2:0
Bit depth                                : 8 bits
Scan type                                : Progressive
Bits/(Pixel*Frame)                       : 0.064
Stream size                              : 41.4 MiB (88%)
Tagged date                              : UTC 2013-02-27 03:54:30

Audio
ID                                       : 2
Format                                   : AAC
Format/Info                              : Advanced Audio Codec
Format profile                           : LC
Codec ID                                 : 40
Duration                                 : 3mn 56s
Bit rate mode                            : Variable
Bit rate                                 : 192 Kbps
Maximum bit rate                         : 202 Kbps
Channel(s)                               : 2 channels
Channel positions                        : Front: L R
Sampling rate                            : 44.1 KHz
Compression mode                         : Lossy
Stream size                              : 5.42 MiB (12%)
Title                                    : IsoMedia File Produced by Google, 5-11-2011
Encoded date                             : UTC 2013-02-27 03:54:30
Tagged date                              : UTC 2013-02-27 03:54:30
		
Bring Me The Horizon - Sleepwalking.mp4 49.119 MB
Gathering some info...

Register and log in Isohunt and see no captcha anymore!

4000 symbols left
Hash 176c6e11626b1a0dee6cd578a1375dda8c4135a9

Related torrents for "Bring Me The Horizon - Sleepwalking.mp4"