imdb
rating

7.3
The Way Back

The Way Back (2010)

Adventure, Drama, History

Full description

[ www.Speed.Cd ] - The.Way.Back.2010.BRRip.XviD.AC3-playXD

Size 1.483 GB   0 seeders     Added 2013-03-06 09:01:07

Stream torrent
Starting‥ You need BitLord! Get it from 1BitLord.com
To download or stream you need BitLord. Visit them at BitLord.com
- 
http://www.Speed.Cd
 
http://www.Speed.Cd       the fast  and The Hottest Private Tracker on the net

Please Seed back to make the speed Faster!!
 ............ NFO .............
-General
Complete name                            : E:The.Way.Back.2010.BRRip.XviD.AC3-playXDThe.Way.Back.2010.BRRip.XviD.AC3-playXD.avi
Format                                   : AVI
Format/Info                              : Audio Video Interleave
File size                                : 1.37 GiB
Duration                                 : 2h 13mn
Overall bit rate                         : 1 474 Kbps
Writing application                      : VirtualDubMod 1.5.10.2 (build 2540/release)
Writing library                          : VirtualDubMod build 2540/release

Video
ID                                       : 0
Format                                   : MPEG-4 Visual
Format profile                           : Advanced Simple@L5
Format settings, BVOP                    : 3
Format settings, QPel                    : Yes
Format settings, GMC                     : No warppoints
Format settings, Matrix                  : Default (MPEG)
Codec ID                                 : XVID
Codec ID/Hint                            : XviD
Duration                                 : 2h 13mn
Bit rate                                 : 1 080 Kbps
Width                                    : 720 pixels
Height                                   : 304 pixels
Display aspect ratio                     : 2.35:1
Frame rate                               : 23.976 fps
Color space                              : YUV
Chroma subsampling                       : 4:2:0
Bit depth                                : 8 bits
Scan type                                : Progressive
Compression mode                         : Lossy
Bits/(Pixel*Frame)                       : 0.206
Stream size                              : 1.01 GiB (73%)
Writing library                          : XviD 1.1.0 Beta2 (UTC 2005-04-04)

Audio
ID                                       : 1
Format                                   : AC-3
Format/Info                              : Audio Coding 3
Mode extension                           : CM (complete main)
Format settings, Endianness              : Big
Codec ID                                 : 2000
Duration                                 : 2h 13mn
Bit rate mode                            : Constant
Bit rate                                 : 384 Kbps
Channel(s)                               : 6 channels
Channel positions                        : Front: L C R, Side: L R, LFE
Sampling rate                            : 48.0 KHz
Bit depth                                : 16 bits
Compression mode                         : Lossy
Stream size                              : 366 MiB (26%)
Alignment                                : Split accross interleaves
Interleave, duration                     : 42 ms (1.00 video frame)
Interleave, preload duration             : 500 ms		
[ www.Speed.Cd ] - The.Way.Back.2010.BRRip.XviD.AC3-playXD/playXD.nfo 5.69 KB
[ www.Speed.Cd ] - The.Way.Back.2010.BRRip.XviD.AC3-playXD/Romanian.srt 56.241 KB
[ www.Speed.Cd ] - The.Way.Back.2010.BRRip.XviD.AC3-playXD/SAMPLE/SAMPLE.avi 10.742 MB
Gathering some info...

Register and log in Isohunt and see no captcha anymore!

4000 symbols left
Hash 805560045ce8141962024559960a342429a31afe

Related torrents for "[ www.Speed.Cd ] - The.Way.Back.2010.BRRip.XviD.AC3-playXD"

Torrent search:

2010 bd