The.Deep.1977.SWESUB.DVDRip.XviD-Tankafett.tv

Size 843.999 MB   0 seeders     Added 2013-03-06 10:01:45

Stream torrent
Starting‚Ä• You need BitLord! Get it from BitLord.com
To download or stream you need BitLord. Visit them at BitLord.com
A pair of young vacationers are involved in a dangerous conflict with treasure hunters when they discover a way into a deadly wreck in Bermuda waters. Featuring extended underwater sequences and a look into the affairs of treasure hunting. Based on a novel by Peter 'Jaws' Benchley. 

Format                                   : AVI
Format/Info                              : Audio Video Interleave
File size                                : 700 MiB
Duration                                 : 1h 59mn
Overall bit rate mode                    : Variable
Overall bit rate                         : 819 Kbps
Writing application                      : VirtualDubMod 1.5.10.2 (build 2542/release)
Writing library                          : VirtualDubMod build 2542/release

Video
ID                                       : 0
Format                                   : MPEG-4 Visual
Format profile                           : Advanced Simple@L5
Format settings, BVOP                    : 1
Format settings, QPel                    : No
Format settings, GMC                     : No warppoints
Format settings, Matrix                  : Default (H.263)
Muxing mode                              : Packed bitstream
Codec ID                                 : XVID
Codec ID/Hint                            : XviD
Duration                                 : 1h 59mn
Bit rate                                 : 695 Kbps
Width                                    : 608 pixels
Height                                   : 256 pixels
Display aspect ratio                     : 2.40:1
Frame rate                               : 25.000 fps
Color space                              : YUV
Chroma subsampling                       : 4:2:0
Bit depth                                : 8 bits
Scan type                                : Progressive
Compression mode                         : Lossy
Bits/(Pixel*Frame)                       : 0.179
Stream size                              : 594 MiB (85%)
Writing library                          : XviD 64

Audio
ID                                       : 1
Format                                   : MPEG Audio
Format version                           : Version 1
Format profile                           : Layer 3
Mode                                     : Joint stereo
Codec ID                                 : 55
Codec ID/Hint                            : MP3
Duration                                 : 1h 59mn
Bit rate mode                            : Variable
Bit rate                                 : 111 Kbps
Nominal bit rate                         : 128 Kbps
Channel(s)                               : 2 channels
Sampling rate                            : 48.0 KHz
Compression mode                         : Lossy
Stream size                              : 95.1 MiB (14%)
Alignment                                : Aligned on interleaves
Interleave, duration                     : 24 ms (0.60 video frame)
Interleave, preload duration             : 541 ms
Writing library                          : LAME3.97 
Encoding settings                        : -m j -V 4 -q 2 -lowpass 17 --abr 128

Translator site: www.swesub.nu
Translators: N/A 

Source: The Deep 1977 XviD ENG  

DVD street date: Jun 17, 1977 
DVD release: Jul 4, 2000 
http://bayimg.com/baKCkaaEG 
http://bayimg.com/BAKcLAAeG 
http://bayimg.com/baKCoaaEg 
http://bayimg.com/baKCPAaEG

Created of Svennen.		
The.Deep.1977.SWESUB.DVDRip.XviD-Tankafett.tv/The.Deep.1977.SWESUB.DVDRip.XviD-Tankafett.tv.avi 733.864 MB
The.Deep.1977.SWESUB.DVDRip.XviD-Tankafett.tv/Sample.avi 110.135 MB
Gathering some info...

Register and log in Isohunt and see no captcha anymore!

4000 symbols left
Hash 47a63a81c6483a44ad42fdc28761aa32d355bc4a