imdb
rating

6.5
Stand Up Guys

Stand Up Guys (2012)

Comedy, Crime, Drama

Full description

[ www.Speed.Cd ] - Stand Up Guys 2012 R5 XviD.Ac3.Feel-Free

Size 1.128 GB   0 seeders     Added 2013-03-06 15:19:33

Stream torrent
Starting‥ You need BitLord! Get it from BitLord.com
To download or stream you need BitLord. Visit them at BitLord.com
- 
http://www.Speed.Cd
 
http://www.Speed.Cd       the fast  and The Hottest Private Tracker on the net

Please Seed back to make the speed Faster!!
 ............ NFO .............
-[img]image[/img]
[img]image[/img]


Genre:Comedy | Crime
Language:English
IMDb:http://www.imdb.com/title/tt1389096/
Source:Russian/MATiNE Thanks
Encoder:Tony

Format                                   : AVI
Format/Info                              : Audio Video Interleave
File size                                : 1.05 GiB
Duration                                 : 1h 34mn
Overall bit rate                         : 1 582 Kbps

Video
ID                                       : 0
Format                                   : MPEG-4 Visual
Format profile                           : Advanced Simple@L5
Format settings, BVOP                    : 1
Format settings, QPel                    : No
Format settings, GMC                     : No warppoints
Format settings, Matrix                  : Default (H.263)
Codec ID                                 : XVID
Codec ID/Hint                            : XviD
Duration                                 : 1h 34mn
Bit rate                                 : 1 188 Kbps
Width                                    : 640 pixels
Height                                   : 272 pixels
Display aspect ratio                     : 2.35:1
Frame rate                               : 25.000 fps
Color space                              : YUV
Chroma subsampling                       : 4:2:0
Bit depth                                : 8 bits
Scan type                                : Progressive
Compression mode                         : Lossy
Bits/(Pixel*Frame)                       : 0.273
Stream size                              : 807 MiB (75%)
Writing library                          : XviD 1.2.1 (UTC 2008-12-04)

Audio
ID                                       : 1
Format                                   : AC-3
Format/Info                              : Audio Coding 3
Mode extension                           : CM (complete main)
Codec ID                                 : 2000
Duration                                 : 1h 34mn
Bit rate mode                            : Constant
Bit rate                                 : 384 Kbps
Channel(s)                               : 6 channels
Channel positions                        : Front: L C R, Side: L R, LFE
Sampling rate                            : 48.0 KHz
Bit depth                                : 16 bits
Compression mode                         : Lossy
Stream size                              : 261 MiB (24%)
Alignment                                : Aligned on interleaves
Interleave, duration                     : 40 ms (1.00 video frame)
Interleave, preload duration             : 512 ms

    
Plot:
   A pair of aging con men try to get the old gang back together for one last hurrah before one of the guys takes his last assignment -- to kill his comrade.

TRAILER:



Greets:
 CRYS,INSPiRAL,IMAGINE,LKRG,ADTRG,FXG,3Li,FLAWL3SS,CrEwSaDe,TA,iLLUSiON,EMBER,HOPE,GooN,BBnRG,NOGRP,ETRG,BHRG,iLLUMiNATi,MiSTERE.ViSiON,DTRG SAFCuk009,LU,TheFalcon007,MYSTiC,PrisM,Noir,WBZ,LAP,Rx,Kingdom,SAFCuk009+Fabreezy,HDLiTE,TWiZTED,ETRG.ELEKTRI4KA,MAGNAT,CM8
                And to all the other p2p grps past and present		
[ www.Speed.Cd ] - Stand Up Guys 2012 R5 XviD.Ac3.Feel-Free/29226750857756313054.jpg 72.866 KB
[ www.Speed.Cd ] - Stand Up Guys 2012 R5 XviD.Ac3.Feel-Free/Stand Up Guys 2012 R5 XviD.Ac3.Feel-Free.avi 1.127 GB
[ www.Speed.Cd ] - Stand Up Guys 2012 R5 XviD.Ac3.Feel-Free/Stand Up Guys 2012 R5 XviD.Ac3.Feel-Free.nfo 3.361 KB
Gathering some info...

Register and log in Isohunt and see no captcha anymore!

4000 symbols left
Hash ee29d8e867302db8c833faa4ab1f81ebeae99e6a

Related torrents for "[ www.Speed.Cd ] - Stand Up Guys 2012 R5 XviD.Ac3.Feel-Free"

Torrent search:

2012 dvd