Ireland

Ireland (2004)

Drama

Full description

Westlife Farewell Concert [RTE Ireland] HQ PDTV x264 AC3 DeViL303

Size 661.39 MB   0 seeders     Added 2013-03-06 17:00:41

Stream torrent
Starting‥ You need BitLord! Get it from BitLord.com
To download or stream you need BitLord. Visit them at BitLord.com
Westlife Farewell Concert [RTE Ireland] HQ PDTV x264

One of the most successful bands of all time, Westlife have had 14 number one singles, more than 20 top 10 hits and have sold a staggering 45 million albums during their 14 year career.

In 2012 Westlife embark on what will be their final tour together. Over a three month period The Farewell Tour travels to more than 100 venues worldwide culminating in a spectacular homecoming concert to 85,000 fans at Croke Park Stadium in Dublin..

File Info:
Complete name                            : Westlife Farewell Concert [RTE Ireland] HQ PDTV x264 AC3 DeViL303.mkv
Format                                   : Matroska
Format version                           : Version 1
File size                                : 630 MiB
Duration                                 : 58mn 55s
Overall bit rate mode                    : Variable
Overall bit rate                         : 1 496 Kbps
Encoded date                             : UTC 2013-03-06 12:05:48
Writing application                      : mkvmerge v2.5.3 ('Boogie') built on Mar  7 2009 15:00:41
Writing library                          : libebml v0.7.7 + libmatroska v0.8.1

Video
ID                                       : 1
Format                                   : AVC
Format/Info                              : Advanced Video Codec
Format profile                           : High@L3.0
Format settings, CABAC                   : Yes
Format settings, ReFrames                : 3 frames
Codec ID                                 : V_MPEG4/ISO/AVC
Duration                                 : 58mn 55s
Bit rate mode                            : Variable
Bit rate                                 : 1 303 Kbps
Maximum bit rate                         : 12.0 Mbps
Width                                    : 720 pixels
Height                                   : 576 pixels
Display aspect ratio                     : 16:9
Original display aspect ratio            : 5:4
Frame rate mode                          : Constant
Frame rate                               : 25.000 fps
Standard                                 : PAL
Color space                              : YUV
Chroma subsampling                       : 4:2:0
Bit depth                                : 8 bits
Scan type                                : Progressive
Bits/(Pixel*Frame)                       : 0.126
Stream size                              : 537 MiB (85%)
Writing library                          : x264 core 93 r1542M 5b86182
Encoding settings                        : cabac=1 / ref=3 / deblock=1:-1:-1 / analyse=0x3:0x133 / me=umh / subme=7 / psy=1 / psy_rd=1.00:0.15 
Default                                  : Yes
Forced                                   : No

Audio
ID                                       : 2
Format                                   : AC-3
Format/Info                              : Audio Coding 3
Mode extension                           : CM (complete main)
Format settings, Endianness              : Big
Codec ID                                 : A_AC3
Duration                                 : 58mn 55s
Bit rate mode                            : Constant
Bit rate                                 : 192 Kbps
Channel(s)                               : 2 channels
Channel positions                        : Front: L R
Sampling rate                            : 48.0 KHz
Bit depth                                : 16 bits
Compression mode                         : Lossy
Stream size                              : 80.9 MiB (13%)
Default                                  : Yes
Forced                                   : No

Menu
00:00:00.000                             : en:Chapter 1n[00:00:00]
00:05:21.363                             : en:Chapter 2n[00:05:21]
00:10:42.727                             : en:Chapter 3n[00:10:42]
00:16:04.090                             : en:Chapter 4n[00:16:04]
00:21:25.454                             : en:Chapter 5n[00:21:25]
00:26:46.818                             : en:Chapter 6n[00:26:46]
00:32:08.181                             : en:Chapter 7n[00:32:08]
00:37:29.545                             : en:Chapter 8n[00:37:29]
00:42:50.909                             : en:Chapter 9n[00:42:50]
00:48:12.272                             : en:Chapter 10n[00:48:12]
00:53:33.636                             : en:Chapter 11n[00:53:33]
00:58:53.000                             : en:Chapter 12n[00:58:53]


If your looking for more irish stuff check out sharingirish or my other torrents on TPB, stay away from the other private irish site previously known as CT, its run by a right muppet who renames other peoples files to put them into his pay only VIP section and never credits the original cappers, most of the stuff on his site is either sourced elsewhere from sites like sharingirish or ripped from RTE player in the lowest quality! I should know, i used to moderate there until i realised what was going on, so stay away from there and help keep irish torrents FREE forever! :D		
		
Westlife Farewell Concert [RTE Ireland] HQ PDTV x264 AC3 DeViL303/Westlife Farewell Concert [RTE Ireland] HQ PDTV x264 AC3 DeViL303.jpg 291.913 KB
Westlife Farewell Concert [RTE Ireland] HQ PDTV x264 AC3 DeViL303/Westlife Farewell Concert [RTE Ireland] HQ PDTV x264 AC3 DeViL303.mkv 661.094 MB
Westlife Farewell Concert [RTE Ireland] HQ PDTV x264 AC3 DeViL303/Westlife Farewell Concert [RTE Ireland] HQ PDTV x264 AC3 DeViL303.nfo 4.093 KB
Gathering some info...

Register and log in Isohunt and see no captcha anymore!

4000 symbols left
Hash c15709b7f109006a73cafac0095dc1800223fdd4

Related torrents for "Westlife Farewell Concert [RTE Ireland] HQ PDTV x264 AC3 DeViL303"

Torrent search:

x264 hdtv