imdb
rating

6.9
Populaire

Populaire (2012)

Comedy

Full description

Populaire.2012.DVDRip.XviD.AC3.HORiZON-ArtSubs

Size 1.843 GB   1 100 seeders     Added 2013-03-06 17:16:14

Stream torrent
Starting‥ You need BitLord! Get it from BitLord.com
To download or stream you need BitLord. Visit them at BitLord.com
Title:
Populaire

Country:
France/2012

No Subtitle

Director:
Régis Roinsard

Writers:
Régis Roinsard, Daniel Presley

Stars:
Romain Duris, Déborah François, Bérénice Bejo

Synopsis:
1958. Rose is a terrible secretary but a demon typist. Her handsome boss resolves to turn her into the fastest girl in the world.

Imdb: 
http://www.imdb.com/title/tt2070776/

Trailer: 
http://www.bandes-annonces.fr/film-2012/bande-annonce-populaire.html


Media Info:

General
Complete name                            : Populaire.2012.DVDRip.XviD.AC3.HORiZON-ArtSubs
Format                                   : AVI
Format/Info                              : Audio Video Interleave
Format profile                           : OpenDML
File size                                : 1.72 GiB
Duration                                 : 1h 48mn
Overall bit rate                         : 2 270 Kbps
Writing application                      : Lavf52.94.0

Video
ID                                       : 0
Format                                   : MPEG-4 Visual
Format profile                           : Simple@L3
Format settings, BVOP                    : No
Format settings, QPel                    : No
Format settings, GMC                     : No warppoints
Format settings, Matrix                  : Default (H.263)
Codec ID                                 : XVID
Codec ID/Hint                            : XviD
Duration                                 : 1h 48mn
Bit rate                                 : 2 034 Kbps
Width                                    : 1 024 pixels
Height                                   : 576 pixels
Display aspect ratio                     : 16:9
Frame rate                               : 25.000 fps
Color space                              : YUV
Chroma subsampling                       : 4:2:0
Bit depth                                : 8 bits
Scan type                                : Progressive
Compression mode                         : Lossy
Bits/(Pixel*Frame)                       : 0.138
Stream size                              : 1.54 GiB (90%)
Writing library                          : XviD 1.2.1 (UTC 2008-12-04)

Audio
ID                                       : 1
Format                                   : AC-3
Format/Info                              : Audio Coding 3
Mode extension                           : CM (complete main)
Format settings, Endianness              : Big
Codec ID                                 : 2000
Duration                                 : 1h 48mn
Bit rate mode                            : Constant
Bit rate                                 : 224 Kbps
Channel(s)                               : 2 channels
Channel positions                        : Front: L R
Sampling rate                            : 48.0 KHz
Bit depth                                : 16 bits
Compression mode                         : Lossy
Stream size                              : 173 MiB (10%)
Alignment                                : Aligned on interleaves
Interleave, duration                     : 32 ms (0.80 video frame)

		
Populaire.2012.DVDRip.XviD.AC3.HORiZON-ArtSubs/Populaire.2012.DVDRip.XviD.AC3.HORiZON-ArtSubs.avi 1.843 GB
Gathering some info...

Register and log in Isohunt and see no captcha anymore!

4000 symbols left
Hash 96f64ce41948ca552df1eca785a28efa7cb88d0b

Related torrents for "Populaire.2012.DVDRip.XviD.AC3.HORiZON-ArtSubs"

Torrent search:

dvdrip 2012