Robot And Frank 2012 BRRip 720p x264 AAC - PRiSTiNE [P2PDL]

Size 575.562 MB   38 seeders     Added 2013-03-06 20:00:26

Stream torrent
Starting‥ You need BitLord! Get it from BitLord.com
To download or stream you need BitLord. Visit them at BitLord.com
							Robot And Frank 2012 BRRip 720p x264 AAC - PRiSTiNE
Genre: Comedy | Crime | Drama | Sci-Fi
Plot: Set in the near future, an ex-jewel thief receives 
a gift from his son: a robot butler programmed to look 
after him. But soon the two companions try their luck 
as a heist team.
Director: Jake Schreier
Stars: Peter Sarsgaard, Frank Langella, Susan Sarandon
Rated: Rated PG-13 for some languageIMDbTrailer
General
Complete name : Robot And Frank 2012 BRRip 720p x264 AAC - PRiSTiNE.mp4
Format : MPEG-4
Format profile : Base Media
Codec ID : isom
File size : 542 MiB
Duration : 1h 29mn
Overall bit rate mode : Variable
Overall bit rate : 852 Kbps
Source : 720p BluRay PHD (Thanks)
Video
Format/Info : Advanced Video Codec
Format profile : High 10@L4.1
Duration : 1h 29mn
Bit rate : 765 Kbps
Width : 1 280 pixels
Height : 534 pixels
Display aspect ratio : 2.40:1
Frame rate mode : Constant
Frame rate : 23.976 fps
Color space : YUV
Chroma subsampling : 4:2:0
Bit depth : 10 bits
Scan type : Progressive
Bits/(Pixel*Frame) : 0.047
Stream size : 487 MiB (90%)
Writing library : x264 core 129 r2245 bc13772
Audio
Format : AAC
Duration : 1h 29mn
Bit rate mode : Variable
Bit rate : 83.9 Kbps
Channel(s) : 2 channels
Channel positions : Front: L R
Sampling rate : 48.0 KHz / 24.0 KHz
Compression mode : Lossy
Stream size : 53.4 MiB (10%)
Language : English
Subtitle : Yes (English)Screens:Thumbs:
----------------------------------------------------------------------------------------------------Encoded using revolutionary 10bit encoding, which enables us to provide you more crispier 
and sharper images at small sizes, just make sure you follow our instructions without a fault.
Recommend to you to use latest version of VLC player. Install K-Lite Codec Pack or shark007 codecs
in case of any kind of problem in playback (For non-VLC Media Player users). Alternatively, install
Core AVC codecs, the fastest decoder that there is coupled with Community Center Codec Pack and play
on Windows Media Player Classic. Check sample to be sure.
Enjoy!
Greets to: VYTO, a2zRG, MusiK_KinG, Kuroyukihime, TorDigger, Ash968, StyLishSaLH, Masta and staff members at
ExtraTorrent, TPB, H33T, KAT, 1337x, PublicHD, Ahashare, BTScene, SilverTorrent, LimeTorrents, TorrentMafia,
P2PDL, and all others.
Encoder Notes: Looking For Early Access To Anything You Can Provide DVDScr, R5, DVDR, BluRay, Direct
Audio, Early Music Releases, Seedboxes, Dedicated Servers anything u can provide, Advance / Promo CDs/
DVDs. If You Got anything to offer contact me at "prg@hush.com".
						
Robot And Frank 2012 BRRip 720p x264 AAC - PRiSTiNE [P2PDL]/Robot And Frank 2012 BRRip 720p x264 AAC - PRiSTiNE/Robot And Frank 2012 BRRip 720p x264 AAC - PRiSTiNE.mp4 568.799 MB
Robot And Frank 2012 BRRip 720p x264 AAC - PRiSTiNE [P2PDL]/Sample/Sample.mp4 6.665 MB
Robot And Frank 2012 BRRip 720p x264 AAC - PRiSTiNE [P2PDL]/Robot And Frank 2012 BRRip 720p x264 AAC - PRiSTiNE/Robot And Frank 2012 BRRip 720p x264 AAC - PRiSTiNE.srt 92.127 KB
Gathering some info...

Register and log in Isohunt and see no captcha anymore!

4000 symbols left
Hash 7b48ffbbdc3dab30f978cb375bd7001b9d22eb6c