imdb
rating

6.2
Beautiful Creatures

Beautiful Creatures (2013)

Drama, Fantasy, Romance

Full description

[ www.Speed.Cd ] - Beautiful Creatures 2013 HDCAM NEW SOURCE - HQ DiVX MP3 - C00KIEBOY (Exclusive)

Size 2.031 GB   0 seeders     Added 2013-03-07 02:00:35

Stream torrent
Starting‥ You need BitLord! Get it from BitLord.com
10
To download or stream you need BitLord. Visit them at BitLord.com
							- http://www.Speed.Cdhttp://www.Speed.Cd the fast and The Hottest Private Tracker on the net
Please Seed back to make the speed Faster!!
 ............ NFO .............
- _____ _____ _____ _ _______ ___________ _______ __
 / __ _ || _ | | / /_ _| ___| ___ | _ / /
 | / / | | || | | | |/ / | | | |__ | |_/ /| | | | V /
 | | | | | || | | | | | | __|| ___ | | | | /
 | __/ _/ / _/ / | _| |_| |___| |_/ / _/ / | |
 ____/___/ ___/_| _/___/____/____/ ___/ _/---------------------------------------------------------------------
TITLE: Beautiful Creatures 2013 HDCAM NEW SOURCE - HQ DiVX MP3 - C00KIEBOY (Exclusive)
IMDB:http://www.imdb.com/title/tt1559547/?ref_=sr_1
ALL CREDITS GO TO ORIGINAL SOURCE/S:
VIDEO - A NICE FRIEND :)
AUDIO - A NICE FRIEND :)
---------------------------------------------------------------------
Greetz: tommiecook, adtrg, matine, 26k, cm8, 1mperium,
---------------------------------------------------------------------
General
Format : AVI
Format/Info : Audio Video Interleave
File size : 1.87 GiB
Duration : 2h 5mn
Overall bit rate : 2 123 Kbps
Video
ID : 0
Format : MPEG-4 Visual
Format settings, BVOP : Yes
Format settings, QPel : No
Format settings, GMC : No warppoints
Format settings, Matrix : Default (H.263)
Codec ID : DX50
Codec ID/Hint : DivX 5
Duration : 1h 56mn
Bit rate : 2 200 Kbps
Width : 780 pixels
Height : 320 pixels
Display aspect ratio : 2.40:1
Frame rate : 29.970 fps
Color space : YUV
Chroma subsampling : 4:2:0
Bit depth : 8 bits
Scan type : Progressive
Compression mode : Lossy
Bits/(Pixel*Frame) : 0.294
Stream size : 1.79 GiB (96%)
Writing library : DivX 6.8.5 (UTC 2009-08-20)
Audio
ID : 1
Format : MPEG Audio
Format version : Version 2
Format profile : Layer 3
Codec ID : 55
Codec ID/Hint : MP3
Duration : 2h 5mn
Source duration : 1h 56mn
Bit rate mode : Constant
Bit rate : 80.0 Kbps
Channel(s) : 2 channels
Sampling rate : 16.0 KHz
Compression mode : Lossy
Stream size : 66.8 MiB (3%)
Alignment : Aligned on interleaves
Interleave, duration : 36 ms (1.08 video frame)
Writing library : LAME3.98r
Encoding settings : -m s -V 4 -q 3 -lowpass 8 -b 80
---------------------------------------------------------------------
WORK DONE:
VIDEO: USUAL STUFF
AUDIO: AUDIO IS FROM NOGRP RELEASE AS THE SOURCE I WAS GIVEN HAD NO AUDIO, SORRY
---------------------------------------------------------------------
SCREENSHOTS: image
						
[ www.Speed.Cd ] - Beautiful Creatures 2013 HDCAM NEW SOURCE - HQ DiVX MP3 - C00KIEBOY (Exclusive)/BEAUT.nfo 4.185 KB
[ www.Speed.Cd ] - Beautiful Creatures 2013 HDCAM NEW SOURCE - HQ DiVX MP3 - C00KIEBOY (Exclusive)/BEAUT.sfv 429 B
[ www.Speed.Cd ] - Beautiful Creatures 2013 HDCAM NEW SOURCE - HQ DiVX MP3 - C00KIEBOY (Exclusive)/Beautiful Creatures 2013 HDCAM NEW SOURCE - HQ DiVX MP3 - C00KIEBOY (Exclusive).avi 2.006 GB
Gathering some info...

Register and log in Isohunt and see no captcha anymore!

4000 symbols left
Hash b34fa7eb7997ba08da90e90155f1f404f25979fa

Related torrents for "[ www.Speed.Cd ] - Beautiful Creatures 2013 HDCAM NEW SOURCE - HQ DiVX MP3 - C00KIEBOY (Exclusive)"

Torrent search:

2013