imdb
rating

8.0
Charade

Charade (1963)

Comedy, Mystery, Thriller, Romance

Full description
quality   dvdrip h264 bd hd x264 fullhd

Charade [1963] BRRip XviD - CODY

Size 1.076 GB   0 seeders     Added 2013-03-07 03:45:36

Stream torrent
Starting‥ You need BitLord! Get it from BitLord.com
To download or stream you need BitLord. Visit them at BitLord.com
General
Complete name                            : Charade [1963] BRRip XviD - CODY.avi
Format                                   : AVI
Format/Info                              : Audio Video Interleave
File size                                : 1.00 GiB
Duration                                 : 1h 53mn
Overall bit rate                         : 1 262 Kbps
Writing application                      : VirtualDubMod 1.5.10.3 | www.virtualdub-fr.org || (build 2550/release)
Writing library                          : VirtualDubMod build 2550/release

Video
ID                                       : 0
Format                                   : MPEG-4 Visual
Format profile                           : Advanced Simple@L5
Format settings, BVOP                    : 4
Format settings, QPel                    : No
Format settings, GMC                     : No warppoints
Format settings, Matrix                  : Default (H.263)
Muxing mode                              : Packed bitstream
Codec ID                                 : XVID
Codec ID/Hint                            : XviD
Duration                                 : 1h 53mn
Bit rate                                 : 1 125 Kbps
Width                                    : 720 pixels
Height                                   : 392 pixels
Display aspect ratio                     : 1.85:1
Frame rate                               : 23.976 fps
Color space                              : YUV
Chroma subsampling                       : 4:2:0
Bit depth                                : 8 bits
Scan type                                : Progressive
Compression mode                         : Lossy
Bits/(Pixel*Frame)                       : 0.166
Stream size                              : 914 MiB (89%)
Writing library                          : XviD 65

Audio
ID                                       : 1
Format                                   : MPEG Audio
Format version                           : Version 1
Format profile                           : Layer 3
Codec ID                                 : 55
Codec ID/Hint                            : MP3
Duration                                 : 1h 53mn
Bit rate mode                            : Constant
Bit rate                                 : 128 Kbps
Channel(s)                               : 1 channel
Sampling rate                            : 48.0 KHz
Compression mode                         : Lossy
Stream size                              : 104 MiB (10%)
Alignment                                : Aligned on interleaves
Interleave, duration                     : 42 ms (1.00 video frame)
Interleave, preload duration             : 504 ms
Writing library                          : LAME3.99r
Encoding settings                        : -m m -V 4 -q 2 -lowpass 20.5 -b 128

Audio language                           : English

IMDB link:                                 http://www.imdb.com/title/tt0056923/

Subtitles included                       : Romanian
                                           
Please seed at least 1,5:1. This way this torrent has a chance to survive !

Thanks. Enjoy !                                   				
Charade [1963] BRRip XviD - CODY/Charade [1963] BRRip XviD - CODY.avi 1.075 GB
Charade [1963] BRRip XviD - CODY/Charade [1963] BRRip XviD - CODY.srt 95.436 KB
Charade [1963] BRRip XviD - CODY/Cover.jpg 150.742 KB
Gathering some info...

Register and log in Isohunt and see no captcha anymore!

4000 symbols left
Hash 08611c1b85643ddf5c05044440a999e83a96aa46

Related torrents for "Charade [1963] BRRip XviD - CODY"

Torrent search:

1963 bd