imdb
rating

6.0
The Shadow

The Shadow (1994)

Action, Adventure, Fantasy, Science Fiction, Thriller

Full description
quality   hdtv hd dvdrip x264 bd fullhd dvd

Bring Me The Horizon - Shadow Moses (Official Video).mp4

Size 67.324 MB   4 seeders     Added 2013-03-07 04:00:37

Stream torrent
Starting‥ You need BitLord! Get it from BitLord.com
10
To download or stream you need BitLord. Visit them at BitLord.com
							Taken from the new album 'Sempiternal' out 1st April through RCA
Format : MPEG-4
Format profile : Base Media / Version 2
Codec ID : mp42
File size : 64.2 MiB
Duration : 4mn 14s
Overall bit rate mode : Variable
Overall bit rate : 2 119 Kbps
Encoded date : UTC 2013-01-17 17:20:10
Tagged date : UTC 2013-01-17 17:20:10
gsst : 0
gstd : 254281
gssd : BC417A887HH1362644837843890
gshh :
Video
ID : 1
Format : AVC
Format/Info : Advanced Video Codec
Format profile : High@L3.1
Format settings, CABAC : Yes
Format settings, ReFrames : 1 frame
Codec ID : avc1
Codec ID/Info : Advanced Video Coding
Duration : 4mn 14s
Bit rate : 1 925 Kbps
Maximum bit rate : 4 999 Kbps
Width : 1 280 pixels
Height : 720 pixels
Display aspect ratio : 16:9
Frame rate mode : Constant
Frame rate : 25.000 fps
Color space : YUV
Chroma subsampling : 4:2:0
Bit depth : 8 bits
Scan type : Progressive
Bits/(Pixel*Frame) : 0.084
Stream size : 58.3 MiB (91%)
Tagged date : UTC 2013-01-17 17:20:11
Audio
ID : 2
Format : AAC
Format/Info : Advanced Audio Codec
Format profile : LC
Codec ID : 40
Duration : 4mn 14s
Bit rate mode : Variable
Bit rate : 192 Kbps
Maximum bit rate : 201 Kbps
Channel(s) : 2 channels
Channel positions : Front: L R
Sampling rate : 44.1 KHz
Compression mode : Lossy
Stream size : 5.82 MiB (9%)
Title : IsoMedia File Produced by Google, 5-11-2011
Encoded date : UTC 2013-01-17 17:20:11
Tagged date : UTC 2013-01-17 17:20:11
Bring Me The Horizon - Sleepwalking 720p http://thepiratebay.se/torrent/8224652/Bring_Me_The_Horizon_-_Sleepwalking_720p
						
Bring Me The Horizon - Shadow Moses (Official Video).mp4 67.324 MB
Gathering some info...

Register and log in Isohunt and see no captcha anymore!

4000 symbols left
Hash d50ba631fadd64a2ddc995194ce7784d0b042943

Related torrents for "Bring Me The Horizon - Shadow Moses (Official Video).mp4"