imdb
rating

5.7
Tribute

Tribute (2009)

Drama, Horror, Romance

Full description
quality   dvdrip x264 hdtv hd

Sean Og A Tribute [GAA] [RTE Ireland] HQ PDTV x264 AC3 DeViL303

Size 298.426 MB   0 seeders     Added 2013-03-07 07:16:56

Stream torrent
Starting‥ You need BitLord! Get it from 1BitLord.com
To download or stream you need BitLord. Visit them at BitLord.com
Sean Og A Tribute [GAA] [RTE Ireland] HQ PDTV x264 AC3 DeViL303


The death has taken place of legendary broadcaster Seán Óg Ó Ceallacháin at the age of 89.

Ó Ceallacháin retired in May 2011 after an illustrious career that spanned decades on RTÉ airwaves.

He first broadcast on Radio Éireann in 1935 as part of the Scoil Colmchille school choir and took over the Sunday night GAA results show from his father, Seán Ó Ceallacháin, in 1948.

His voice became a familiar staple to the sporting audience as a tie-in with Gaelic Games for over 60 years.

Ó Ceallacháin achieved the longest career in radio sports broadcasting worldwide.

He represented Dublin hurlers in the 1940s and 1950s and played in the 1948 All-Ireland hurling final, scoring a goal in Dublin's loss to Waterford.

Former Dublin footballer Jimmy Keaveney paid tribute to Seán Óg Ó Ceallacháin.

He said: “He was a dyed-in-the-wool [GAA person], he was a great supporter.

"He would always be there for a bit of advice or anything you want to get something done for your club or charity, Seán Óg would be the first one who would [do it], a real gentleman.”

Current Clare manager and Kerry legend Mick O’Dwyer also hailed the ex-Dublin hurler.

"He represented the voice of urban Dublin and rural Ireland," he said.

“On a Sunday night, every GAA man would tune in to get the results of their club games all over the country.

“If you wanted to know something about Gaelic Games, you just contacted Seán and he’d have the answer fairly quickly, he was a wonderful commentator.”

Noel Curran, Director-General, RTÉ, said the broadcaster became "an essential part of sporting Sundays".

"Seán Óg Ó Ceallacháin was a legend in Sports broadcasting," he said.

"On RTÉ Radio 1, he presented one of the longest-running sports results programmes in the world, having joined his father on air in 1948.

"When he signed off on his last Gaelic Sports Results programme in 2011, it was a momentous moment not only in broadcasting but in the sporting life of the nation.

"His passing will be acknowledged by the many thousands of listeners for whom Seán Óg's Sunday night broadcasts were an essential part of our sporting Sundays."

Clare Duignan, MD RTÉ Radio, said Ó Ceallacháin had a unique place in Irish life:

"Seán Óg first broadcast on Radio Éireann in 1935 as part of the Scoil Colmchille school choir and took over the Sunday night GAA results show from his father, Seán Ó Ceallacháin, in 1948. 

"His voice became not only a familiar staple to the general sporting audience, but synonymous with Gaelic Games for over 60 years. His was a unique voice, with a unique place in Irish life."

File Info:
Complete name                            : Sean Og A Tribute [GAA] [RTE Ireland] HQ PDTV x264 AC3 DeViL303.mkv
Format                                   : Matroska
Format version                           : Version 1
File size                                : 284 MiB
Duration                                 : 26mn 36s
Overall bit rate mode                    : Variable
Overall bit rate                         : 1 495 Kbps
Encoded date                             : UTC 2013-03-07 11:37:04
Writing application                      : mkvmerge v2.5.3 ('Boogie') built on Mar  7 2009 15:00:41
Writing library                          : libebml v0.7.7 + libmatroska v0.8.1

Video
ID                                       : 1
Format                                   : AVC
Format/Info                              : Advanced Video Codec
Format profile                           : High@L3.0
Format settings, CABAC                   : Yes
Format settings, ReFrames                : 3 frames
Codec ID                                 : V_MPEG4/ISO/AVC
Duration                                 : 26mn 36s
Bit rate mode                            : Variable
Bit rate                                 : 1 303 Kbps
Maximum bit rate                         : 12.0 Mbps
Width                                    : 720 pixels
Height                                   : 576 pixels
Display aspect ratio                     : 16:9
Original display aspect ratio            : 5:4
Frame rate mode                          : Constant
Frame rate                               : 25.000 fps
Standard                                 : PAL
Color space                              : YUV
Chroma subsampling                       : 4:2:0
Bit depth                                : 8 bits
Scan type                                : Progressive
Bits/(Pixel*Frame)                       : 0.126
Stream size                              : 242 MiB (85%)
Writing library                          : x264 core 93 r1542M 5b86182
Encoding settings                        : cabac=1 / ref=3 / deblock=1:-1:-1 / 
Default                                  : Yes
Forced                                   : No

Audio
ID                                       : 2
Format                                   : AC-3
Format/Info                              : Audio Coding 3
Mode extension                           : CM (complete main)
Format settings, Endianness              : Big
Codec ID                                 : A_AC3
Duration                                 : 26mn 36s
Bit rate mode                            : Constant
Bit rate                                 : 192 Kbps
Channel(s)                               : 2 channels
Channel positions                        : Front: L R
Sampling rate                            : 48.0 KHz
Bit depth                                : 16 bits
Compression mode                         : Lossy
Stream size                              : 36.5 MiB (13%)
Default                                  : Yes
Forced                                   : No

Text
ID                                       : 3
Format                                   : SSA
Codec ID                                 : S_TEXT/SSA
Codec ID/Info                            : Sub Station Alpha
Compression mode                         : Lossless
Default                                  : Yes
Forced                                   : No

Menu
00:00:00.000                             : en:Chapter 1n[00:00:00]
00:02:25.138                             : en:Chapter 2n[00:02:25]
00:04:50.276                             : en:Chapter 3n[00:04:50]
00:07:15.414                             : en:Chapter 4n[00:07:15]
00:09:40.552                             : en:Chapter 5n[00:09:40]
00:12:05.690                             : en:Chapter 6n[00:12:05]
00:14:30.829                             : en:Chapter 7n[00:14:30]
00:16:55.967                             : en:Chapter 8n[00:16:55]
00:19:21.105                             : en:Chapter 9n[00:19:21]
00:21:46.243                             : en:Chapter 10n[00:21:46]
00:24:11.381                             : en:Chapter 11n[00:24:11]
00:26:34.520                             : en:Chapter 12n[00:26:34]		
Sean Og A Tribute [GAA] [RTE Ireland] HQ PDTV x264 AC3 DeViL303/Sean Og A Tribute [GAA] [RTE Ireland] HQ PDTV x264 AC3 DeViL303.mkv 298.283 MB
Sean Og A Tribute [GAA] [RTE Ireland] HQ PDTV x264 AC3 DeViL303/Sean Og A Tribute [GAA] [RTE Ireland] HQ PDTV x264 AC3 DeViL303.jpg 143.57 KB
Gathering some info...

Register and log in Isohunt and see no captcha anymore!

4000 symbols left
Hash 329e313257244b38c5efd6db4a36a7fc80769864

Related torrents for "Sean Og A Tribute [GAA] [RTE Ireland] HQ PDTV x264 AC3 DeViL303"

Torrent search:

x264 hdtv