[ www.Speed.Cd ] - Rolling.2007.LiMiTED.DVDRip.XviD-kaka

Size 733.232 MB   0 seeders     Added 2013-03-07 12:33:58

Stream torrent
Starting‚Ä• You need BitLord! Get it from 1BitLord.com
To download or stream you need BitLord. Visit them at BitLord.com
- 
http://www.Speed.Cd
 
http://www.Speed.Cd       the fast  and The Hottest Private Tracker on the net

Please Seed back to make the speed Faster!!
 ............ NFO .............
-General
Complete name                            : Rolling.2007.LiMiTED.DVDRip.XviD-kaka.avi
Format                                   : AVI
Format/Info                              : Audio Video Interleave
Format profile                           : OpenDML
Format settings                          : rec
File size                                : 699 MiB
Duration                                 : 1h 39mn
Overall bit rate mode                    : Variable
Overall bit rate                         : 981 Kbps
Writing application                      : AVI-Mux GUI 1.17.7, Aug  8 2006  20:59:17

Video
ID                                       : 0
Format                                   : MPEG-4 Visual
Format profile                           : Advanced Simple@L5
Format settings, BVOP                    : 2
Format settings, QPel                    : No
Format settings, GMC                     : No warppoints
Format settings, Matrix                  : Default (MPEG)
Codec ID                                 : XVID
Codec ID/Hint                            : XviD
Duration                                 : 1h 39mn
Bit rate                                 : 860 Kbps
Width                                    : 608 pixels
Height                                   : 336 pixels
Display aspect ratio                     : 16:9
Frame rate                               : 23.976 fps
Color space                              : YUV
Chroma subsampling                       : 4:2:0
Bit depth                                : 8 bits
Scan type                                : Progressive
Compression mode                         : Lossy
Bits/(Pixel*Frame)                       : 0.176
Stream size                              : 613 MiB (88%)
Writing library                          : XviD 1.1.2 (UTC 2006-11-01)

Audio
ID                                       : 1
Format                                   : MPEG Audio
Format version                           : Version 1
Format profile                           : Layer 3
Mode                                     : Joint stereo
Mode extension                           : MS Stereo
Codec ID                                 : 55
Codec ID/Hint                            : MP3
Duration                                 : 1h 39mn
Bit rate mode                            : Variable
Bit rate                                 : 116 Kbps
Channel(s)                               : 2 channels
Sampling rate                            : 48.0 KHz
Compression mode                         : Lossy
Stream size                              : 80.0 MiB (11%)
Alignment                                : Aligned on interleaves
Interleave, duration                     : 24 ms (0.58 video frame)
Interleave, preload duration             : 194 ms
Title                                    : arigold-rolling-xvid
Writing library                          : LAME3.97 
Encoding settings                        : -m j -V 4 -q 3 -lowpass 15.6 --abr 116		
[ www.Speed.Cd ] - Rolling.2007.LiMiTED.DVDRip.XviD-kaka/Rolling.2007.LiMiTED.DVDRip.XviD-kaka.avi 733.229 MB
[ www.Speed.Cd ] - Rolling.2007.LiMiTED.DVDRip.XviD-kaka/Rolling.2007.LiMiTED.DVDRip.XviD-kaka.nfo 2.972 KB
[ www.Speed.Cd ] - Rolling.2007.LiMiTED.DVDRip.XviD-kaka/www.Speed.Cd read me .txt 60 B
Gathering some info...

Register and log in Isohunt and see no captcha anymore!

4000 symbols left
Hash 7fc4c5ba8511bc244ac3283968b5b882df4744cb