imdb
rating

5.8
Honeymoon in Vegas

Honeymoon in Vegas (1992)

Action, Comedy, Romance, Thriller

Full description
quality   x264 hd bd dvdrip fullhd

Honeymoon in Vegas (1992) BRRip 720p Dual Audio Hindi - English By~ Amit_Anil

Size 1.452 GB   1 seeders     Added 2013-03-07 15:32:38

Stream torrent
Starting‥ You need BitLord! Get it from 1BitLord.com
10
To download or stream you need BitLord. Visit them at BitLord.com
$$$$$ FIRST ON NET IN HD HINDI $$$$$

Hindi Audio Muxing My Best Friend Bharat Saini
 
http://www.imdb.com/title/tt0104438/
 
http://en.wikipedia.org/wiki/Honeymoon_in_Vegas
 
image

Honeymoon in Vegas (1992) BRRip 720p Dual Audio Hindi - English By~ Amit_Anil

File size                                : 1.35 GiB
Duration                                 : 1h 35mn
Overall bit rate                         : 2 018 Kbps

Video
Bit rate                                 : 1 722 Kbps
Video Resolution                         : 1280 x 696
Width                                    : 1280 pixels
Height                                   : 696 pixels
Display aspect ratio                     : 1.85:1
Frame rate                               : 23.976 fps
Stream size                              : 1.15 GiB (85%)

Audio #1
Channel(s)                               : 2 channels
Stream size                              : 87.7 MiB (6%)
Title                                    : Hindi _By~ Amit_Anil

Audio #2
Channel(s)                               : 2 channels
Stream size                              : 87.7 MiB (6%)
Title                                    : English



 
image
 
image
 
image
 
image



SEED PLEASE

Keep Seeding After Downloading...		
Honeymoon in Vegas (1992) BRRip 720p Dual Audio Hindi - English By~ Amit_Anil/Honeymoon in Vegas (1992) BRRip 720p (Dual Audio)(Hindi - English) By~ Amit_Anil.mkv 1.45 GB
Honeymoon in Vegas (1992) BRRip 720p Dual Audio Hindi - English By~ Amit_Anil/Honeymoon in Vegas (2).jpg 893.966 KB
Honeymoon in Vegas (1992) BRRip 720p Dual Audio Hindi - English By~ Amit_Anil/Honeymoon in Vegas (4).jpg 485.478 KB
Gathering some info...

Register and log in Isohunt and see no captcha anymore!

4000 symbols left
Hash ee87f40b31c9b718a0dad3a0d76ebe4e0c075d13

Related torrents for "Honeymoon in Vegas (1992) BRRip 720p Dual Audio Hindi - English By~ Amit_Anil"

Torrent search:

english 1992 hd hindi bd