imdb
rating

4.1
Riddle

Riddle (2013)

Mystery, Thriller

Full description

Riddle.2013.WEBRip XViD juggs

Size 743.579 MB   48 seeders     Added 2013-03-07 19:47:39

Stream torrent
Starting‥ You need BitLord! Get it from 1BitLord.com
To download or stream you need BitLord. Visit them at BitLord.com
Source : NGB

Format : AVI
Format/Info : Audio Video Interleave
File size : 702 MiB
Duration : 1h 39mn
Overall bit rate : 984 Kbps
Writing library : VirtualDub build 32842/release

Video
ID : 0
Format : MPEG-4 Visual
Format profile : Advanced Simple@L5
Format settings, BVOP : 4
Format settings, QPel : No
Format settings, GMC : No warppoints
Format settings, Matrix : Default (H.263)
Muxing mode : Packed bitstream
Codec ID : XVID
Codec ID/Hint : XviD
Duration : 1h 39mn
Bit rate : 847 Kbps
Width : 640 pixels
Height : 352 pixels
Display aspect ratio : 16:9
Frame rate : 23.976 fps
Color space : YUV
Chroma subsampling : 4:2:0
Bit depth : 8 bits
Scan type : Progressive
Compression mode : Lossy
Bits/(Pixel*Frame) : 0.157
Stream size : 604 MiB (86%)
Writing library : XviD 64

Audio
ID : 1
Format : MPEG Audio
Format version : Version 1
Format profile : Layer 3
Codec ID : 55
Codec ID/Hint : MP3
Duration : 1h 39mn
Bit rate mode : Constant
Bit rate : 128 Kbps
Channel(s) : 2 channels
Sampling rate : 44.1 KHz
Compression mode : Lossy
Stream size : 91.3 MiB (13%)
Alignment : Split accross interleaves
Interleave, duration : 42 ms (1.00 video frame)
Interleave, preload duration : 500 ms
Writing library : LAME3.99r
Encoding settings : -m s -V 4 -q 3 -lowpass 17 -b 128


Plot
College student Holly Teller (Elisabeth Harnois) is drawn to the mysterious small
town of Riddle, Pennsylvania in search of her missing brother. Against the will of the
local Sheriff (Val Kilmer) and town elder (William Sadler), she begins to unravel a mystery
connected to an abandoned psychiatric hospital on the edge of town, uncovering a terrifying
past the town in determined to keep hidden.


 
image 
image 
image 
image		
Riddle.2013.WEBRip XViD juggs/Riddle.2013.WEBRip XViD juggs.avi 735.757 MB
Riddle.2013.WEBRip XViD juggs/sample.avi 7.821 MB
Riddle.2013.WEBRip XViD juggs/Torrent Downloaded From ExtraTorrent.com.txt 339 B
Gathering some info...

Register and log in Isohunt and see no captcha anymore!

4000 symbols left
Hash 8f8d85fa777e3cff4eec85069b62736a64974450

Related torrents for "Riddle.2013.WEBRip XViD juggs"

Torrent search:

web-rip 2013